img image001 image001 image001 image001 image001 image001 image001 image001 image001 image001 image001 image001 image001 image001 image001

Planets Sun Sun Sun
Статистика раздачи
Автор: Снежана | Размер: 1.77 ГБ | Добавлен: 24 июл 2013
Раздают: 9    Качают: 3
Скачать торрент
Скачать торрент
Описание торрента

СообщениеДобавлено: 24 июл 2013 

#77

Информация о фильме
Оригинальное название: Любовь в СССР
Год выпуска: 2012
Жанр: Мелодрама
Режиссер: Карен Шахназаров
В ролях: Александр Ляпин, Лидия Милюзина, Егор Барановский, Иван Купреенко, Армен Джигарханян, Ольга Тумайкина, Янина Калганова

О фильме: В основе сюжета - классический любовный треугольник. Сергей и Степан учатся в одном институте и оба влюблены в однокурсницу Людмилу. Чувство соперничества постоянно провоцирует их на участие в разных нелепых историях, в итоге благие намерения оборачиваются ссорами друг с другом и любимой девушкой. Особенно не везет Сергею. Он горяч, импульсивен, бесшабашен - полная противоположность спокойному, внимательному и надежному Степану. Людмиле не просто решиться, а тут еще Сергей назло ей укатил в Гагры с другой девушкой… Когда кураж прошел и Сергей понял, что ему никто не нужен, кроме Людмилы, он возвращается в Москву, чтобы сделать ей предложение, но, похоже, судьба в очередной раз приготовила ему сюрприз…



Страна: Россия
Студия: Курьер, Мосфильм, МОСФИЛЬМ-мастер
Продолжительность: 01:31:08

Файл
Качество: BDRip (AVC)
Видео: MPEG-4 AVC, 2344 Кбит/c, 964x576, 23.976 кадр/c
Звук: Русский (AC3, 6 ch, 448 Кбит/c)
Семпл




Общее
Уникальный идентификатор : 217737636382343255090325743110298461369 (0xA3CEBE4EFF0319389EDD84798AE6E4B9)
Полное имя : D:Mои раздачиLyubovj.v.SSSR.2012.BDRip.(AVC)-MediaClub.mkv
Формат : Matroska
Версия формата : Version 2
Размер файла : 1,77 Гбайт
Продолжительность : 1 ч. 31 м.
Общий поток : 2787 Кбит/сек
Название фильма : Любовь в СССР (MediaClub-kaspr)
Дата кодирования : UTC 2013-05-20 16:07:46
Программа кодирования : mkvmerge v5.7.0 ('The Whirlwind') built on Aug 7 2012 14:11:40
Библиотека кодирования : libebml v1.2.3 + libmatroska v1.3.0

Видео
Идентификатор : 1
Формат : AVC
Формат/Информация : Advanced Video Codec
Профиль формата : High@L4.1
Параметр CABAC формата : Да
Параметр ReFrames формата : 8 кадров
Идентификатор кодека : V_MPEG4/ISO/AVC
Продолжительность : 1 ч. 31 м.
Битрейт : 2344 Кбит/сек
Ширина : 964 пикселя
Высота : 576 пикселей
Соотношение сторон : 1,674
Режим частоты кадров : Постоянный
Частота кадров : 23,976 кадра/сек
Цветовое пространство : YUV
Субдискретизация насыщенности : 4:2:0
Битовая глубина : 8 бит
Тип развёртки : Прогрессивная
Бит/(Пиксели*Кадры) : 0.176
Размер потока : 1,45 Гбайт (82%)
Заголовок : Любовь в СССР (MediaClub-kaspr)
Библиотека кодирования : x264 core 130 r2273 b3065e6
Настройки программы : cabac=1 / ref=8 / deblock=1:-3:-3 / analyse=0x3:0x133 / me=umh / subme=11 / psy=1 / psy_rd=1.00:0.10 / mixed_ref=1 / me_range=32 / chroma_me=1 / trellis=2 / 8x8dct=1 / cqm=0 / deadzone=21,11 / fast_pskip=0 / chroma_qp_offset=-3 / threads=12 / lookahead_threads=1 / sliced_threads=0 / nr=0 / decimate=0 / interlaced=0 / bluray_compat=0 / constrained_intra=0 / bframes=6 / b_pyramid=2 / b_adapt=2 / b_bias=0 / direct=3 / weightb=1 / open_gop=0 / weightp=2 / keyint=240 / keyint_min=22 / scenecut=40 / intra_refresh=0 / rc=2pass / mbtree=0 / bitrate=2344 / ratetol=1.0 / qcomp=0.60 / qpmin=0 / qpmax=69 / qpstep=4 / cplxblur=20.0 / qblur=0.5 / ip_ratio=1.40 / pb_ratio=1.30 / aq=1:1.00
Default : Да
Forced : Нет

Аудио
Идентификатор : 2
Формат : AC-3
Формат/Информация : Audio Coding 3
Расширение режима : CM (complete main)
Параметр Endianness формата : Big
Идентификатор кодека : A_AC3
Продолжительность : 1 ч. 31 м.
Вид битрейта : Постоянный
Битрейт : 448 Кбит/сек
Каналы : 6 каналов
Расположение каналов : Front: L C R, Side: L R, LFE
Частота : 48,0 КГц
Битовая глубина : 16 бит
Метод сжатия : С потерями
Размер потока : 292 Мбайт (16%)
Язык : Russian
Default : Да
Forced : Нет

Меню
00:00:00.000 : en:Chapter 01
00:04:04.327 : en:Chapter 02
00:10:07.106 : en:Chapter 03
00:15:14.413 : en:Chapter 04
00:18:52.756 : en:Chapter 05
00:24:29.718 : en:Chapter 06
00:33:51.404 : en:Chapter 07
00:40:58.164 : en:Chapter 08
00:49:27.089 : en:Chapter 09
00:55:41.379 : en:Chapter 10
01:00:37.050 : en:Chapter 11
01:08:04.663 : en:Chapter 12
01:14:48.358 : en:Chapter 13
01:20:06.259 : en:Chapter 14

---[NoImage] x264 [info]: frame I:729 Avg QP:15.99 size: 69777
---[NoImage] x264 [info]: frame P:26187 Avg QP:18.85 size: 25386
---[NoImage] x264 [info]: frame B:104199 Avg QP:19.89 size: 8464
---[NoImage] x264 [info]: consecutive B-frames: 1.3% 2.1% 5.8% 12.9% 15.9% 41.0% 21.0%
---[NoImage] x264 [info]: mb I I16..4: 10.2% 75.8% 14.0%
---[NoImage] x264 [info]: mb P I16..4: 0.6% 9.5% 0.8% P16..4: 31.9% 35.6% 13.1% 1.3% 0.1% skip: 7.1%
---[NoImage] x264 [info]: mb B I16..4: 0.1% 0.6% 0.1% B16..8: 36.8% 21.6% 3.5% direct: 4.7% skip:32.6% L0:45.1% L1:43.5% BI:11.4%
---[NoImage] x264 [info]: 8x8 transform intra:83.4% inter:59.2%
---[NoImage] x264 [info]: direct mvs spatial:97.8% temporal:2.2%
---[NoImage] x264 [info]: coded y,uvDC,uvAC intra: 89.3% 85.2% 62.5% inter: 28.0% 23.0% 8.1%
---[NoImage] x264 [info]: i16 v,h,dc,p: 58% 12% 12% 18%
---[NoImage] x264 [info]: i8 v,h,dc,ddl,ddr,vr,hd,vl,hu: 9% 10% 10% 10% 13% 13% 12% 12% 12%
---[NoImage] x264 [info]: i4 v,h,dc,ddl,ddr,vr,hd,vl,hu: 10% 26% 6% 6% 11% 12% 11% 8% 10%
---[NoImage] x264 [info]: i8c dc,h,v,p: 42% 24% 19% 14%
---[NoImage] x264 [info]: Weighted P-Frames: Y:9.1% UV:3.2%
---[NoImage] x264 [info]: ref P L0: 40.0% 12.2% 20.1% 7.1% 7.0% 4.7% 5.2% 3.3% 0.5% 0.0%
---[NoImage] x264 [info]: ref B L0: 66.0% 15.1% 7.9% 4.7% 3.5% 1.9% 0.8%
---[NoImage] x264 [info]: ref B L1: 91.2% 8.8%
---[NoImage] x264 [info]: kb/s:2337.14


Релиз от:



   Похожие торренты   Торрент   Размер 
В этой теме нет новых непрочитанных сообщений. Любовь в СССР (2012) BDRip | Лицензия

166 | 12

1.45 ГБ

В этой теме нет новых непрочитанных сообщений. Любовь в СССР (2012) BDRip 720p | Лицензия

23 | 3

4.41 ГБ

В этой теме нет новых непрочитанных сообщений. Любовь в СССР (2012) BDRip 1080p | Лицензия

9 | 3

8.97 ГБ

В этой теме нет новых непрочитанных сообщений. Любовь в СССР (2012) HDRip | Лицензия

46 | 4

743.56 МБ

В этой теме нет новых непрочитанных сообщений. Любовь в СССР (2013) BDRip от HQCLUB | Лицензия

38 | 2

1.45 ГБ

В этой теме нет новых непрочитанных сообщений. Любовь в СССР (2012) BDRip-AVC от potroks

27 | 3

1.19 ГБ

В этой теме нет новых непрочитанных сообщений. Любовь по-взрослому / This Is 40 (2012) BDRip-AVC от MediaClub | Лицензия

179 | 7

2.45 ГБ




Вы не можете начинать темы
Вы не можете отвечать на сообщения
Вы не можете редактировать свои сообщения
Вы не можете удалять свои сообщения
Вы не можете добавлять вложения

Перейти:  
Для Мосгорсуда, Роскомнадзора и рекламодателей: mosgorsud-torrent[собачка]yandex.ru
 Вход
ppkBB3cker v.2 © 2008-2014 @ PPK
[ Time : 0.021s | 15 Queries | GZIP : Off ]

Торрент трекер RUTOR.IN, Не можете зайти на rutor.org? Какой новый адрес рутор? Какое зеркало рутор? Не работает rutor.org и зеркала? Тогда наш торрент специально для вас. Rutor.in неофициальное зеркало rutor. В случае если у Вас заблокирован rutor или вдруг Вы не можете на него зайти, то Вы без труда сможете скачать бесплатно и без рекламы последние новинки кино, игр, сериалов и прочего у нас, на Rutor.in. Не нужно использовать прокси, чтобы зайти на рутор, достаточно воспользоваться нашим ресурсом. Все новые фильмы, игры, сериалы, книги и музыка за 2013 и 2014 годы через торрент бесплатно. Скачивайте фильмы в хорошем качестве, игры для пк, xbox, playstation без регистрации. У нас вы найдете новые Зарубежные сериалы и Русские сериалы 2013, 2014, 2015 годов. Оставайтесь с нами, качайте любимые фильмы, игры, сериалы, книги и музыку.
cron