img image001 image001 image001 image001 image001 image001 image001 image001 image001 image001 image001 image001 image001 image001 image001

Planets Sun Sun Sun
Статистика раздачи
Автор: Снежана | Размер: 1.46 ГБ | Добавлен: 24 июл 2013
Раздают: 403    Качают: 19
Скачать торрент
Скачать торрент
Описание торрента

СообщениеДобавлено: 24 июл 2013 

#77

Страна: Россия
Жанр: комедия, мелодрама
Год выпуска: 2011
Продолжительность: 01:26:27

Перевод: Не требуется
Cубтитры: нет

Режиссер: Михаил Козлов, Сергей Никонов

В ролях: Сергей Никонов (Валя), Евгений Жамцуев (Булат), Михаил Козлов (Степа), Александр Хамнушкин (Баир), Максим Покровский (прикольный дядька), Евгений Ганелин (преподаватель), Дарья Прокопьева (Нарана), Мария Галимова (подруга Нараны), Юлиана Шкабарова (подруга Нараны), Юлия Борисова (подруга Нараны), Наян Сагаев (отец Нараны), Артем Бурлов (жених Нараны)

Описание: Валентину, студенту института кинематографии Санкт-Петербурга, в качестве дипломной работы предстоит снять документальный фильм о Байкале. Его друзья напоминают ему о Степане, бывшем одногруппнике из Улан-Удэ. Он решает обратиться к нему за помощью.
В Улан-Удэ вместе со своими друзьями ребята попадают в различные курьезные ситуации. В течение трех они отдыхают на Байкале в Чивыркуйском заливе, помогают Валентину в съемках документального фильма и рассказывают о всех красотах «священного моря».

Качество видео: DVDRip
Формат видео: AVI
Видео кодек: XviD
Аудио кодек: MP3
Видео: 704x400 (1.76:1), 25 fps, XviD build 50 ~2272 kbps avg, 0.32 bit/pixel
Аудио: 48 kHz, MPEG Layer 3, 2 ch, ~128.00 kbps avg

Раздача от:


D:Na Baykal_DVDRip.1.45 [YTN] by dexter lex.avi
General
Complete name : D:Na Baykal_DVDRip.1.45 [YTN] by dexter lex.avi
Format : AVI
Format/Info : Audio Video Interleave
File size : 1.46 GiB
Duration : 1h 26mn
Overall bit rate : 2 410 Kbps
Writing application : VirtualDubMod 1.5.10.3 | www.virtualdub-fr.org || (build 2550/release)
Writing library : VirtualDubMod build 2550/release
Video #0
ID : 0
Format : MPEG-4 Visual
Format profile : Advanced Simple@L5
Format settings, BVOP : 1
Format settings, QPel : No
Format settings, GMC : No warppoints
Format settings, Matrix : Custom
Codec ID : XVID
Codec ID/Hint : XviD
Duration : 1h 26mn
Bit rate : 2 272 Kbps
Width : 704 pixels
Height : 400 pixels
Display aspect ratio : 16:9
Frame rate : 25.000 fps
Color space : YUV
Chroma subsampling : 4:2:0
Bit depth : 8 bits
Scan type : Progressive
Compression mode : Lossy
Bits/(Pixel*Frame) : 0.323
Stream size : 1.37 GiB (94%)
Writing library : XviD 50
Audio #1
ID : 1
Format : MPEG Audio
Format version : Version 1
Format profile : Layer 3
Codec ID : 55
Codec ID/Hint : MP3
Duration : 1h 26mn
Bit rate mode : Constant
Bit rate : 128 Kbps
Channel(s) : 2 channels
Sampling rate : 48.0 KHz
Compression mode : Lossy
Stream size : 79.2 MiB (5%)
Alignment : Aligned on interleaves
Interleave, duration : 40 ms (1.00 video frame)
Interleave, preload duration : 504 ms
Writing library : LAME3.99r
Encoding settings : -m s -V 4 -q 2 -lowpass 17 -b 128





   Похожие торренты   Торрент   Размер 
В этой теме нет новых непрочитанных сообщений. На Байкал (2011) DVDRip от Youtracker

76 | 5

743.58 МБ

В этой теме нет новых непрочитанных сообщений. На Байкал 2. На абордаж (2012) WEBRip

541 | 17

1.23 ГБ

В этой теме нет новых непрочитанных сообщений. Приезжайте на Байкал (1965) TVRip

349 | 9

1.09 ГБ

В этой теме нет новых непрочитанных сообщений. На Байкал. Поехали [01-10 из 10] (2012) WEBRip

35 | 4

2.49 ГБ

В этой теме нет новых непрочитанных сообщений. Таинственная Россия: Байкал. Живое озеро? (2012) DVB

52 | 4

1.28 ГБ

В этой теме нет новых непрочитанных сообщений. Уроки географии. Байкал (2013) HDTVRip от HitWay

129 | 30

340.47 МБ

В этой теме нет новых непрочитанных сообщений. Байкал. Мелодии Зимы / Baikal. Melodies of Winter (2014) HDRip 1080p

194 | 12

3.08 ГБ




Вы не можете начинать темы
Вы не можете отвечать на сообщения
Вы не можете редактировать свои сообщения
Вы не можете удалять свои сообщения
Вы не можете добавлять вложения

Перейти:  
Для Мосгорсуда, Роскомнадзора и рекламодателей: mosgorsud-torrent[собачка]yandex.ru
 Вход
ppkBB3cker v.2 © 2008-2014 @ PPK
[ Time : 0.103s | 16 Queries | GZIP : Off ]

Торрент трекер RUTOR.IN, Не можете зайти на rutor.org? Какой новый адрес рутор? Какое зеркало рутор? Не работает rutor.org и зеркала? Тогда наш торрент специально для вас. Rutor.in неофициальное зеркало rutor. В случае если у Вас заблокирован rutor или вдруг Вы не можете на него зайти, то Вы без труда сможете скачать бесплатно и без рекламы последние новинки кино, игр, сериалов и прочего у нас, на Rutor.in. Не нужно использовать прокси, чтобы зайти на рутор, достаточно воспользоваться нашим ресурсом. Все новые фильмы, игры, сериалы, книги и музыка за 2013 и 2014 годы через торрент бесплатно. Скачивайте фильмы в хорошем качестве, игры для пк, xbox, playstation без регистрации. У нас вы найдете новые Зарубежные сериалы и Русские сериалы 2013, 2014, 2015 годов. Оставайтесь с нами, качайте любимые фильмы, игры, сериалы, книги и музыку.
cron