img image001 image001 image001 image001 image001 image001 image001 image001 image001 image001 image001 image001 image001 image001 image001

Planets Sun Sun Sun
Статистика раздачи
Автор: Снежана | Размер: 2.18 ГБ | Добавлен: 24 июл 2013
Раздают: 127    Качают: 12
Скачать торрент
Скачать торрент
Описание торрента

СообщениеДобавлено: 24 июл 2013 

#77

Страна: СССР
Жанр: Комедия, приключения
Год выпуска: 2012
Продолжительность: 01:34:33
Перевод:
Не требуется [оригинал]

Субтитры: -
Оригинальная дорожка: -
Главы: есть

Режиссер: Леонид Гайдай
В ролях: Александр Демьяненко, Наталья Селезнёва, Алексей Смирнов, Юрий Никулин, Евгений Моргунов, Георгий Вицин, Михаил Пуговкин, Виктор Павлов, Владимир Басов, Рина Зеленая


Описание: Фильм состоит из трех новелл, объединенных фигурой главного героя Шурика, попадающего в самые невероятные ситуации. В «Напарнике» Шурик сражается с хулиганом Верзилой; в «Наваждении» весьма оригинальным способом готовится к экзамену; в «Операции «Ы» предотвращает «ограбление века», на которое идет знаменитая тройка - Балбес, Трус и Бывалый.


Раздача от: | Рип L


Доп. информация:
Полная реставрация изображения и звука. Исходные киноматериалы подготовлены Госфильмофондом России. Покадровая цифровая реставрация изображения, ремастеринг звука и авторинг проведены объединением «Крупный план».


Сэмпл


Качество видео: BDRip-AVC
Формат видео: MKV

Видео: AVC / High@L4.1 / 802 x 610 / 2 849 Kbps / 4:3
Аудио: 48 kHz, AC3 Dolby Digital, 3/2 (L,C,R,l,r) + LFE ch, ~448 kbps








Общее
Уникальный идентификатор : 234754014701207725800546339275923416163 (0xB09BFA88A9D3787EBB227547CEE26463)
Полное имя : D:25KadrOperatsiya.Y.i.Drugie.Priklyucheniya.Shurika.Bluray.avc.ac3.rus.RG.25.Kadr[by.L].mkv
Формат : Matroska
Версия формата : Version 2
Размер файла : 2,18 Гбайт
Продолжительность : 1 ч. 34 м.
Общий поток : 3299 Кбит/сек
Название фильма : Операция «Ы» и другие приключения Шурика [1965 г.] | Рип L [R.G. 25 Кадр] | Unionpeer.org | Tapochek.net
Дата кодирования : UTC 2013-05-21 04:22:02
Программа кодирования : mkvmerge v3.2.0 ('Beginnings') built on Feb 12 2010 16:46:17
Библиотека кодирования : libebml v0.7.9 + libmatroska v0.8.1

Видео
Идентификатор : 1
Формат : AVC
Формат/Информация : Advanced Video Codec
Профиль формата : High@L4.1
Параметр CABAC формата : Да
Параметр ReFrames формата : 11 кадров
Идентификатор кодека : V_MPEG4/ISO/AVC
Продолжительность : 1 ч. 34 м.
Битрейт : 2849 Кбит/сек
Ширина : 802 пикселя
Высота : 610 пикселей
Соотношение сторон : 4:3
Режим частоты кадров : Постоянный
Частота кадров : 23,976 кадра/сек
Цветовое пространство : YUV
Субдискретизация насыщенности : 4:2:0
Битовая глубина : 8 бит
Тип развёртки : Прогрессивная
Бит/(Пиксели*Кадры) : 0.243
Размер потока : 1,84 Гбайт (84%)
Библиотека кодирования : x264 core 130 r2273 b3065e6
Настройки программы : cabac=1 / ref=11 / deblock=1:-2:-2 / analyse=0x3:0x133 / me=umh / subme=10 / psy=1 / psy_rd=0.95:0.05 / mixed_ref=1 / me_range=32 / chroma_me=1 / trellis=2 / 8x8dct=1 / cqm=0 / deadzone=21,11 / fast_pskip=0 / chroma_qp_offset=-4 / threads=6 / lookahead_threads=1 / sliced_threads=0 / nr=0 / decimate=1 / interlaced=0 / bluray_compat=0 / constrained_intra=0 / bframes=8 / b_pyramid=2 / b_adapt=2 / b_bias=0 / direct=3 / weightb=1 / open_gop=0 / weightp=2 / keyint=230 / keyint_min=21 / scenecut=40 / intra_refresh=0 / rc_lookahead=0 / rc=2pass / mbtree=0 / bitrate=2849 / ratetol=1.0 / qcomp=0.70 / qpmin=0 / qpmax=69 / qpstep=4 / cplxblur=20.0 / qblur=0.5 / vbv_maxrate=50000 / vbv_bufsize=62500 / nal_hrd=none / ip_ratio=1.35 / pb_ratio=1.25 / aq=2:0.90
Язык : Russian
Default : Нет
Forced : Нет

Аудио
Идентификатор : 2
Формат : AC-3
Формат/Информация : Audio Coding 3
Расширение режима : CM (complete main)
Параметр Endianness формата : Big
Идентификатор кодека : A_AC3
Продолжительность : 1 ч. 34 м.
Вид битрейта : Постоянный
Битрейт : 448 Кбит/сек
Каналы : 6 каналов
Расположение каналов : Front: L C R, Side: L R, LFE
Частота : 48,0 КГц
Битовая глубина : 16 бит
Метод сжатия : С потерями
Размер потока : 303 Мбайт (14%)
Заголовок : Оригинал
Язык : Russian
Default : Да
Forced : Нет

Меню
00:00:00.000 : en:Chapter 01
00:03:46.935 : en:Chapter 02
00:08:52.615 : en:Chapter 03
00:13:58.629 : en:Chapter 04
00:17:53.322 : en:Chapter 05
00:25:03.502 : en:Chapter 06
00:31:35.893 : en:Chapter 07
00:35:16.948 : en:Chapter 08
00:41:43.584 : en:Chapter 09
00:45:58.630 : en:Chapter 10
00:52:43.160 : en:Chapter 11
00:57:14.055 : en:Chapter 12
01:03:11.037 : en:Chapter 13
01:06:33.489 : en:Chapter 14
01:13:24.608 : en:Chapter 15
01:15:08.212 : en:Chapter 16
01:20:51.513 : en:Chapter 17
01:29:02.003 : en:Chapter 18
01:34:28.079 : en:Chapter 19

-[NoImage] x264 [info]: frame I:969 Avg QP:16.56 size: 87059 PSNR Mean Y:46.48 U:50.72 V:51.02 Avg:47.50 Global:47.25
-[NoImage] x264 [info]: frame P:28759 Avg QP:18.70 size: 31986 PSNR Mean Y:44.24 U:48.57 V:48.88 Avg:45.26 Global:44.96
-[NoImage] x264 [info]: frame B:106299 Avg QP:20.79 size: 9560 PSNR Mean Y:43.53 U:48.34 V:48.65 Avg:44.62 Global:44.32
-[NoImage] x264 [info]: consecutive B-frames: 1.4% 1.1% 6.9% 23.6% 16.8% 48.4% 1.5% 0.2% 0.1%



   Похожие торренты   Торрент   Размер 
В этой теме нет новых непрочитанных сообщений. Операция «Ы» и другие приключения Шурика (1965) BDRip от HQ-ViDEO

1212 | 51

1.45 ГБ

В этой теме нет новых непрочитанных сообщений. Операция «Ы» и другие приключения Шурика (1965) BDRip от MediaClub | КПК

329 | 9

410.24 МБ

В этой теме нет новых непрочитанных сообщений. Операция «Ы» и другие приключения Шурика (1965) BDRip 1080p

166 | 20

7.73 ГБ

В этой теме нет новых непрочитанных сообщений. Операция «Ы» и другие приключения Шурика (1965) BDRip-AVC от R.G. HD-Films | 60 fps

615 | 46

2.87 ГБ

В этой теме нет новых непрочитанных сообщений. Операция «Ы» и другие приключения Шурика (1965) BDRip от HQCLUB

1030 | 61

1.45 ГБ

В этой теме нет новых непрочитанных сообщений. Операция «Ы» и другие приключения Шурика (1965) BDRip-AVC от MediaClub

29 | 8

1.78 ГБ

В этой теме нет новых непрочитанных сообщений. Операция «Ы» и другие приключения Шурика (1965) BDRip от Youtracker

197 | 18

745.13 МБ




Вы не можете начинать темы
Вы не можете отвечать на сообщения
Вы не можете редактировать свои сообщения
Вы не можете удалять свои сообщения
Вы не можете добавлять вложения

Перейти:  
Для Мосгорсуда, Роскомнадзора и рекламодателей: mosgorsud-torrent[собачка]yandex.ru
 Вход
ppkBB3cker v.2 © 2008-2014 @ PPK
[ Time : 0.039s | 14 Queries | GZIP : On ]

Торрент трекер RUTOR.IN, Не можете зайти на rutor.org? Какой новый адрес рутор? Какое зеркало рутор? Не работает rutor.org и зеркала? Тогда наш торрент специально для вас. Rutor.in неофициальное зеркало rutor. В случае если у Вас заблокирован rutor или вдруг Вы не можете на него зайти, то Вы без труда сможете скачать бесплатно и без рекламы последние новинки кино, игр, сериалов и прочего у нас, на Rutor.in. Не нужно использовать прокси, чтобы зайти на рутор, достаточно воспользоваться нашим ресурсом. Все новые фильмы, игры, сериалы, книги и музыка за 2013 и 2014 годы через торрент бесплатно. Скачивайте фильмы в хорошем качестве, игры для пк, xbox, playstation без регистрации. У нас вы найдете новые Зарубежные сериалы и Русские сериалы 2013, 2014, 2015 годов. Оставайтесь с нами, качайте любимые фильмы, игры, сериалы, книги и музыку.