img image001 image001 image001 image001 image001 image001 image001 image001 image001 image001 image001 image001 image001 image001 image001

Planets Sun Sun Sun
Статистика раздачи
Автор: Снежана | Размер: 2.35 ГБ | Добавлен: 24 июл 2013
Раздают: 13    Качают: 4
Скачать торрент
Скачать торрент
Описание торрента

СообщениеДобавлено: 24 июл 2013 

#77

Жанр: Tриллер, мелодрама
Год выпуска: 2009
Страна: Россия
Киностудия: «МЛ-студия» по заказу компании «Централ Партнершип»
Продолжительность: 01:32:05

Режиссёр: Николай Лебедев

В ролях: Фабио Фулко, Елена Николаева (II), Сергей Гармаш, Нина Усатова, Светлана Тома, Алексей Комашко, Анатолий Белый, Александр Бухаров, Максим Воронков, Алексей Злобин, Алексей Королев, Ольга Литвинова, Николай Мачульский, Александр Новин, Александр Пахомов, Сергей Угрюмов, Сергей Брауде.

Описание: Пронзительная история любви в атмосфере смертельной опасности. Девушка, работающая в службе прослушивания, влюбляется в порученного ей «клиента».



Сэмпл: http://multi-up.com/867904

Качество видео: DVB
Формат видео: MPEG-PS

Видео: MPEG2 Video, 720x576 (4:3), 25 fps, 3384 Kbps, 0.33 bit/pixel
Аудио: MPEG Audio, 48 kHz, 2 ch, 192 kbps
General
Complete name : D:Фонограмма страсти_2009_DVB.mpg
Format : MPEG-PS
File size : 2.35 GiB
Duration : 1h 32mn
Overall bit rate mode : Variable
Overall bit rate : 3 648 Kbps

Video
ID : 224 (0xE0)
Format : MPEG Video
Format version : Version 2
Format profile : Main@Main
Format settings, BVOP : Yes
Format settings, Matrix : Custom
Format settings, GOP : M=3, N=12
Duration : 1h 32mn
Bit rate mode : Variable
Bit rate : 3 384 Kbps
Maximum bit rate : 15.0 Mbps
Width : 720 pixels
Height : 576 pixels
Display aspect ratio : 4:3
Frame rate : 25.000 fps
Standard : PAL
Color space : YUV
Chroma subsampling : 4:2:0
Bit depth : 8 bits
Scan type : Interlaced
Scan order : Top Field First
Compression mode : Lossy
Bits/(Pixel*Frame) : 0.326
Time code of first frame : 00:00:00:00
Time code source : Group of pictures header
Stream size : 2.18 GiB (93%)

Audio
ID : 192 (0xC0)
Format : MPEG Audio
Format version : Version 1
Format profile : Layer 2
Duration : 1h 32mn
Bit rate mode : Constant
Bit rate : 192 Kbps
Channel(s) : 2 channels
Sampling rate : 48.0 KHz
Compression mode : Lossy
Stream size : 126 MiB (5%)






   Похожие торренты   Торрент   Размер 
В этой теме нет новых непрочитанных сообщений. Фонограмма страсти (2009) DVDRip

11 | 4

1.37 ГБ

В этой теме нет новых непрочитанных сообщений. Фонограмма страсти (2009) SATRip

15 | 11

1.36 ГБ

В этой теме нет новых непрочитанных сообщений. Фонограмма страсти (2009) DVDRip от КинозалSAT

80 | 8

1.37 ГБ

В этой теме нет новых непрочитанных сообщений. Фонограмма страсти (2009) DVDRip от КинозалSAT

57 | 8

700.44 МБ

В этой теме нет новых непрочитанных сообщений. Паутина страсти / Web of Desire (2009) HDTVRip 720р от RG MixTorrent | P

3 | 4

1.69 ГБ

В этой теме нет новых непрочитанных сообщений. Анатомия страсти / Grey's Anatomy [S01-05] (2005-2009) TVRip от NovaFILM

42 | 93

38.62 ГБ

В этой теме нет новых непрочитанных сообщений. Grey's Anatomy: The Video Game / Анатомия Страсти: Видеоигра (2009) PC

17 | 4

3.59 ГБ




Вы не можете начинать темы
Вы не можете отвечать на сообщения
Вы не можете редактировать свои сообщения
Вы не можете удалять свои сообщения
Вы не можете добавлять вложения

Перейти:  
Для Мосгорсуда, Роскомнадзора и рекламодателей: mosgorsud-torrent[собачка]yandex.ru
 Вход
ppkBB3cker v.2 © 2008-2014 @ PPK
[ Time : 0.046s | 14 Queries | GZIP : Off ]

Торрент трекер RUTOR.IN, Не можете зайти на rutor.org? Какой новый адрес рутор? Какое зеркало рутор? Не работает rutor.org и зеркала? Тогда наш торрент специально для вас. Rutor.in неофициальное зеркало rutor. В случае если у Вас заблокирован rutor или вдруг Вы не можете на него зайти, то Вы без труда сможете скачать бесплатно и без рекламы последние новинки кино, игр, сериалов и прочего у нас, на Rutor.in. Не нужно использовать прокси, чтобы зайти на рутор, достаточно воспользоваться нашим ресурсом. Все новые фильмы, игры, сериалы, книги и музыка за 2013 и 2014 годы через торрент бесплатно. Скачивайте фильмы в хорошем качестве, игры для пк, xbox, playstation без регистрации. У нас вы найдете новые Зарубежные сериалы и Русские сериалы 2013, 2014, 2015 годов. Оставайтесь с нами, качайте любимые фильмы, игры, сериалы, книги и музыку.