img image001 image001 image001 image001 image001 image001 image001 image001 image001 image001 image001 image001 image001 image001 image001

Planets Sun Sun Sun
Статистика раздачи
Автор: Снежана | Размер: 1.19 ГБ | Добавлен: 24 июл 2013
Раздают: 27    Качают: 3
Скачать торрент
Скачать торрент
Описание торрента

СообщениеДобавлено: 24 июл 2013 

#77

Год выпуска: 2012
Производство: Россия / Курьер, Мосфильм, МОСФИЛЬМ-мастер
Жанр: Мелодрама
Продолжительность: 01:31:08
Перевод: Оригинал [лицензия]


Режиссер: Карен Шахназаров

В ролях: Александр Ляпин, Лидия Милюзина, Егор Барановский, Иван Купреенко, Армен Джигарханян, Ольга Тумайкина, Янина Калганова

О фильме: В основе сюжета - классический любовный треугольник. Сергей и Степан учатся в одном институте и оба влюблены в однокурсницу Людмилу. Чувство соперничества постоянно провоцирует их на участие в разных нелепых историях, в итоге благие намерения оборачиваются ссорами друг с другом и любимой девушкой. Особенно не везет Сергею. Он горяч, импульсивен, бесшабашен - полная противоположность спокойному, внимательному и надежному Степану. Людмиле не просто решиться, а тут еще Сергей назло ей укатил в Гагры с другой девушкой… Когда кураж прошел и Сергей понял, что ему никто не нужен, кроме Людмилы, он возвращается в Москву, чтобы сделать ей предложение, но, похоже, судьба в очередной раз приготовила ему сюрприз…





Качество: BDRip-AVC [Blu-Ray]
Формат: MKV
Видео: H.264, 992x594 (1,67:1); 23,976 fps; 1420 kbps; 0.101 bit/pixel
Аудио: 48 kHz, AC3 Dolby Digital, 3/2 (L,C,R,l,r) + LFE ch, 448.00 kbps


Автор рипа:



Общее
Уникальный идентификатор : 222655963850655034793681331438214468729 (0xA781FA9323299E46AFE28EFC62185479)
Полное имя : Ljubov'.v.SSSR.2012.O.BDRip.x264.potroks.mkv
Формат : Matroska
Версия формата : Version 4 / Version 2
Размер файла : 1,19 Гбайт
Продолжительность : 1 ч. 31 м.
Общий поток : 1866 Кбит/сек
Название фильма : -=POTROKS=-
Дата кодирования : UTC 2013-05-23 08:18:39
Программа кодирования : mkvmerge v5.9.0 ('On The Loose') built on Dec 15 2012 16:39:58
Библиотека кодирования : libebml v1.3.0 + libmatroska v1.4.0

Видео
Идентификатор : 1
Формат : AVC
Формат/Информация : Advanced Video Codec
Профиль формата : High@L4.1
Параметр CABAC формата : Да
Параметр ReFrames формата : 7 кадров
Идентификатор кодека : V_MPEG4/ISO/AVC
Продолжительность : 1 ч. 31 м.
Битрейт : 1420 Кбит/сек
Ширина : 992 пикселя
Высота : 594 пикселя
Соотношение сторон : 1,670
Режим частоты кадров : Постоянный
Частота кадров : 23,976 кадра/сек
Цветовое пространство : YUV
Субдискретизация насыщенности : 4:2:0
Битовая глубина : 8 бит
Тип развёртки : Прогрессивная
Бит/(Пиксели*Кадры) : 0.101
Размер потока : 900 Мбайт (74%)
Заголовок : Любовь в СССР
Библиотека кодирования : x264 core 125 r2208 d9d2288
Настройки программы : cabac=1 / ref=7 / deblock=1:-2:-2 / analyse=0x3:0x133 / me=umh / subme=9 / psy=1 / psy_rd=0.98:0.00 / mixed_ref=1 / me_range=32 / chroma_me=1 / trellis=2 / 8x8dct=1 / cqm=0 / deadzone=21,11 / fast_pskip=0 / chroma_qp_offset=-2 / threads=9 / lookahead_threads=1 / sliced_threads=0 / nr=0 / decimate=1 / interlaced=0 / bluray_compat=0 / constrained_intra=0 / bframes=8 / b_pyramid=2 / b_adapt=2 / b_bias=0 / direct=3 / weightb=1 / open_gop=0 / weightp=2 / keyint=240 / keyint_min=23 / scenecut=40 / intra_refresh=0 / rc_lookahead=150 / rc=2pass / mbtree=1 / bitrate=1420 / ratetol=1.0 / qcomp=0.70 / qpmin=0 / qpmax=69 / qpstep=4 / cplxblur=20.0 / qblur=0.5 / vbv_maxrate=20000 / vbv_bufsize=20000 / nal_hrd=none / ip_ratio=1.35 / aq=1:0.90
Язык : Russian
Default : Да
Forced : Нет

Аудио
Идентификатор : 2
Формат : AC-3
Формат/Информация : Audio Coding 3
Расширение режима : CM (complete main)
Параметр Endianness формата : Big
Идентификатор кодека : A_AC3
Продолжительность : 1 ч. 31 м.
Вид битрейта : Постоянный
Битрейт : 448 Кбит/сек
Каналы : 6 каналов
Расположение каналов : Front: L C R, Side: L R, LFE
Частота : 48,0 КГц
Битовая глубина : 16 бит
Метод сжатия : С потерями
Размер потока : 292 Мбайт (24%)
Заголовок : DD 5.1 @ 448 kbps
Язык : Russian
Default : Да
Forced : Нет




   Похожие торренты   Торрент   Размер 
В этой теме нет новых непрочитанных сообщений. Любовь в СССР (2012) BDRip | Лицензия

166 | 12

1.45 ГБ

В этой теме нет новых непрочитанных сообщений. Любовь в СССР (2012) BDRip 1080p | Лицензия

9 | 3

8.97 ГБ

В этой теме нет новых непрочитанных сообщений. Любовь в СССР (2012) BDRip-AVC от MediaClub | Лицензия

9 | 3

1.77 ГБ

В этой теме нет новых непрочитанных сообщений. Любовь в СССР (2012) BDRip 720p | Лицензия

23 | 3

4.41 ГБ

В этой теме нет новых непрочитанных сообщений. Любовь с акцентом (2012) BDRip-AVC от potroks | Лицензия

35 | 3

1.46 ГБ

В этой теме нет новых непрочитанных сообщений. Любовь в СССР (2012) Blu-Ray

0 | 4

22.65 ГБ

В этой теме нет новых непрочитанных сообщений. Лето. Одноклассники. Любовь / LOL (2012) BDRip-AVC от potroks | D | Лицензия

242 | 9

2.17 ГБ




Вы не можете начинать темы
Вы не можете отвечать на сообщения
Вы не можете редактировать свои сообщения
Вы не можете удалять свои сообщения
Вы не можете добавлять вложения

Перейти:  
Для Мосгорсуда, Роскомнадзора и рекламодателей: mosgorsud-torrent[собачка]yandex.ru
 Вход
ppkBB3cker v.2 © 2008-2014 @ PPK
[ Time : 0.028s | 15 Queries | GZIP : On ]

Торрент трекер RUTOR.IN, Не можете зайти на rutor.org? Какой новый адрес рутор? Какое зеркало рутор? Не работает rutor.org и зеркала? Тогда наш торрент специально для вас. Rutor.in неофициальное зеркало rutor. В случае если у Вас заблокирован rutor или вдруг Вы не можете на него зайти, то Вы без труда сможете скачать бесплатно и без рекламы последние новинки кино, игр, сериалов и прочего у нас, на Rutor.in. Не нужно использовать прокси, чтобы зайти на рутор, достаточно воспользоваться нашим ресурсом. Все новые фильмы, игры, сериалы, книги и музыка за 2013 и 2014 годы через торрент бесплатно. Скачивайте фильмы в хорошем качестве, игры для пк, xbox, playstation без регистрации. У нас вы найдете новые Зарубежные сериалы и Русские сериалы 2013, 2014, 2015 годов. Оставайтесь с нами, качайте любимые фильмы, игры, сериалы, книги и музыку.