img image001 image001 image001 image001 image001 image001 image001 image001 image001 image001 image001 image001 image001 image001 image001

Planets Sun Sun Sun
Статистика раздачи
Автор: Снежана | Размер: 7.09 ГБ | Добавлен: 24 июл 2013
Раздают: 8    Качают: 3
Скачать торрент
Скачать торрент
Описание торрента

СообщениеДобавлено: 24 июл 2013 

#77

Информация о фильме
Оригинальное название: Разговор
Год выпуска: 2012
Жанр: Драма
Режиссер: Сергей Комаров
В ролях: Гоша Куценко, Анна Канарис, Владимир Горюшин, Игорь Кистол, Александр Сирин, Георгий Тополага

О фильме: Борис приходит в себя в тюрьме. Оказывается, что три дня назад он сбил человека. Но вспомнить аварию и обстоятельства, предшествующие ей, Борису не удается даже на допросе. Как все произошло? Кого он сбил? Головоломка начинает складываться, когда на свидание к Борису приходит жена. В разговоре с ней он узнает, что наказан за преступление, которое совершил не сейчас. А наказание это намного страшнее тюремного заключения.



Страна: Россия
Студия: Интерфест, КВФильм-Продакшн, Юрхаус
Продолжительность: 01:17:11

Файл
Качество: BDRip 1080p
Видео: MPEG-4 AVC, 11 Мбит/c, 1920x816, 24.000 кадр/c
Аудио #1: Русский (АС3, 6 ch, 640 Кбит/c)
Аудио #2: Русский (DTS, 6 ch, 1510 Кбит/c)

Семпл




Общее
Уникальный идентификатор : 175427654537210288533339423365523381306 (0x83FA2325BE8E87F8B2633F24DBB11C3A)
Полное имя : D:Mои раздачиRazgovor.2012.BDRip.(1080p)-MediaClub.mkv
Формат : Matroska
Версия формата : Version 2
Размер файла : 7,09 Гбайт
Продолжительность : 1 ч. 17 м.
Общий поток : 13,1 Мбит/сек
Название фильма : Разговор (MediaClub-kaspr)
Дата кодирования : UTC 2013-05-25 04:54:19
Программа кодирования : mkvmerge v5.7.0 ('The Whirlwind') built on Aug 7 2012 14:11:40
Библиотека кодирования : libebml v1.2.3 + libmatroska v1.3.0

Видео
Идентификатор : 1
Формат : AVC
Формат/Информация : Advanced Video Codec
Профиль формата : High@L4.1
Параметр CABAC формата : Да
Параметр ReFrames формата : 4 кадра
Идентификатор кодека : V_MPEG4/ISO/AVC
Битрейт : 11,0 Мбит/сек
Ширина : 1920 пикселей
Высота : 816 пикселей
Соотношение сторон : 2,35:1
Режим частоты кадров : Переменный
Частота кадров в оригинале : 24,000 кадра/сек
Цветовое пространство : YUV
Субдискретизация насыщенности : 4:2:0
Битовая глубина : 8 бит
Тип развёртки : Прогрессивная
Бит/(Пиксели*Кадры) : 0.293
Заголовок : Разговор (MediaClub-kaspr)
Библиотека кодирования : x264 core 130 r2273 b3065e6
Настройки программы : cabac=1 / ref=4 / deblock=1:-3:-3 / analyse=0x3:0x133 / me=umh / subme=11 / psy=1 / psy_rd=1.00:0.10 / mixed_ref=1 / me_range=32 / chroma_me=1 / trellis=2 / 8x8dct=1 / cqm=0 / deadzone=21,11 / fast_pskip=0 / chroma_qp_offset=-3 / threads=12 / lookahead_threads=1 / sliced_threads=0 / nr=0 / decimate=0 / interlaced=0 / bluray_compat=0 / constrained_intra=0 / bframes=6 / b_pyramid=2 / b_adapt=2 / b_bias=0 / direct=3 / weightb=1 / open_gop=0 / weightp=2 / keyint=240 / keyint_min=22 / scenecut=40 / intra_refresh=0 / rc=2pass / mbtree=0 / bitrate=11015 / ratetol=1.0 / qcomp=0.60 / qpmin=0 / qpmax=69 / qpstep=4 / cplxblur=20.0 / qblur=0.5 / ip_ratio=1.40 / pb_ratio=1.30 / aq=1:1.00
Default : Да
Forced : Нет

Аудио #1
Идентификатор : 2
Формат : AC-3
Формат/Информация : Audio Coding 3
Расширение режима : CM (complete main)
Параметр Endianness формата : Big
Идентификатор кодека : A_AC3
Продолжительность : 1 ч. 17 м.
Вид битрейта : Постоянный
Битрейт : 640 Кбит/сек
Каналы : 6 каналов
Расположение каналов : Front: L C R, Side: L R, LFE
Частота : 48,0 КГц
Битовая глубина : 16 бит
Метод сжатия : С потерями
Размер потока : 353 Мбайт (5%)
Заголовок : AC3
Язык : Russian
Default : Да
Forced : Да

Аудио #2
Идентификатор : 3
Формат : DTS
Формат/Информация : Digital Theater Systems
Идентификатор кодека : A_DTS
Продолжительность : 1 ч. 17 м.
Вид битрейта : Постоянный
Битрейт : 1510 Кбит/сек
Каналы : 6 каналов
Расположение каналов : Front: L C R, Side: L R, LFE
Частота : 48,0 КГц
Битовая глубина : 16 бит
Метод сжатия : С потерями
Размер потока : 834 Мбайт (11%)
Заголовок : DTS
Язык : Russian
Default : Нет
Forced : Нет

Меню
00:00:00.000 : en:Chapter 01
00:01:06.916 : en:Chapter 02
00:11:40.208 : en:Chapter 03
00:14:26.291 : en:Chapter 04
00:28:28.333 : en:Chapter 05
00:35:18.083 : en:Chapter 06
00:46:51.083 : en:Chapter 07
00:57:20.000 : en:Chapter 08
01:05:53.375 : en:Chapter 09

---[NoImage] x264 [info]: frame I:697 Avg QP:15.12 size:194266
---[NoImage] x264 [info]: frame P:24545 Avg QP:17.31 size: 93927
---[NoImage] x264 [info]: frame B:85908 Avg QP:18.64 size: 45669
---[NoImage] x264 [info]: consecutive B-frames: 2.4% 2.9% 5.5% 22.0% 22.0% 29.8% 15.5%
---[NoImage] x264 [info]: mb I I16..4: 23.1% 48.7% 28.2%
---[NoImage] x264 [info]: mb P I16..4: 10.4% 20.2% 3.7% P16..4: 24.4% 26.0% 7.2% 1.1% 0.1% skip: 6.9%
---[NoImage] x264 [info]: mb B I16..4: 4.9% 3.1% 0.7% B16..8: 29.8% 16.1% 2.7% direct:13.6% skip:29.1% L0:40.6% L1:40.8% BI:18.6%
---[NoImage] x264 [info]: 8x8 transform intra:47.9% inter:44.8%
---[NoImage] x264 [info]: direct mvs spatial:98.2% temporal:1.8%
---[NoImage] x264 [info]: coded y,uvDC,uvAC intra: 88.6% 84.6% 70.7% inter: 34.9% 43.1% 30.4%
---[NoImage] x264 [info]: i16 v,h,dc,p: 10% 9% 47% 35%
---[NoImage] x264 [info]: i8 v,h,dc,ddl,ddr,vr,hd,vl,hu: 10% 8% 19% 9% 9% 10% 10% 11% 13%
---[NoImage] x264 [info]: i4 v,h,dc,ddl,ddr,vr,hd,vl,hu: 15% 10% 33% 5% 7% 7% 7% 6% 8%
---[NoImage] x264 [info]: i8c dc,h,v,p: 53% 17% 16% 14%
---[NoImage] x264 [info]: Weighted P-Frames: Y:5.4% UV:3.0%
---[NoImage] x264 [info]: ref P L0: 47.3% 10.5% 29.0% 12.4% 0.7% 0.0%
---[NoImage] x264 [info]: ref B L0: 83.4% 13.0% 3.5%
---[NoImage] x264 [info]: ref B L1: 91.2% 8.8%
---[NoImage] x264 [info]: kb/s:10993.39


Релиз от:



   Похожие торренты   Торрент   Размер 
В этой теме нет новых непрочитанных сообщений. Разговор Начистоту / Прямой разговор / Straight Talk (1992) BDRip-AVC от MediaClub | P2

13 | 2

2.08 ГБ

В этой теме нет новых непрочитанных сообщений. Разговор Начистоту / Прямой разговор / Straight Talk (1992) BDRip 720p от MediaClub | P2

12 | 2

3.28 ГБ

В этой теме нет новых непрочитанных сообщений. Разговор (2012) BDRip 1080p

3 | 1

4.36 ГБ

В этой теме нет новых непрочитанных сообщений. Разговор / The Conversation (1974) BDRip-AVC от MediaClub

15 | 2

3.65 ГБ

В этой теме нет новых непрочитанных сообщений. Разговор (2012) Blu-Ray 1080p | Лицензия

0 | 1

15.38 ГБ

В этой теме нет новых непрочитанных сообщений. Разговор (2012) BDRip от HQCLUB | Лицензия

97 | 7

1.45 ГБ

В этой теме нет новых непрочитанных сообщений. Разговор (2012) BDRip 720p | Лицензия

2 | 3

4.36 ГБ




Вы не можете начинать темы
Вы не можете отвечать на сообщения
Вы не можете редактировать свои сообщения
Вы не можете удалять свои сообщения
Вы не можете добавлять вложения

Перейти:  
Для Мосгорсуда, Роскомнадзора и рекламодателей: mosgorsud-torrent[собачка]yandex.ru
 Вход
ppkBB3cker v.2 © 2008-2014 @ PPK
[ Time : 0.068s | 15 Queries | GZIP : Off ]

Торрент трекер RUTOR.IN, Не можете зайти на rutor.org? Какой новый адрес рутор? Какое зеркало рутор? Не работает rutor.org и зеркала? Тогда наш торрент специально для вас. Rutor.in неофициальное зеркало rutor. В случае если у Вас заблокирован rutor или вдруг Вы не можете на него зайти, то Вы без труда сможете скачать бесплатно и без рекламы последние новинки кино, игр, сериалов и прочего у нас, на Rutor.in. Не нужно использовать прокси, чтобы зайти на рутор, достаточно воспользоваться нашим ресурсом. Все новые фильмы, игры, сериалы, книги и музыка за 2013 и 2014 годы через торрент бесплатно. Скачивайте фильмы в хорошем качестве, игры для пк, xbox, playstation без регистрации. У нас вы найдете новые Зарубежные сериалы и Русские сериалы 2013, 2014, 2015 годов. Оставайтесь с нами, качайте любимые фильмы, игры, сериалы, книги и музыку.