img image001 image001 image001 image001 image001 image001 image001 image001 image001 image001 image001 image001 image001 image001 image001

Planets Sun Sun Sun
Статистика раздачи
Автор: Снежана | Размер: 9.17 ГБ | Добавлен: 24 июл 2013
Раздают: 52    Качают: 12
Скачать торрент
Скачать торрент
Описание торрента

СообщениеДобавлено: 24 июл 2013 

#77

Информация о фильме
Оригинальное название: Легенда №17
Год выпуска: 2013
Жанр: Биография, спорт
Выпущено: Россия, студия «ТРИТЭ»
Режиссер: Николай Лебедев
В ролях: Данила Козловский, Олег Меньшиков, Светлана Иванова, Борис Щербаков, Владимир Меньшов, Роман Мадянов, Алехандра Грепи, Дарья Екамасова, Александр Рагулин, Александр Харламов

О фильме: 2 сентября 1972 года. Монреаль. Хоккейная сборная СССР с разгромным счетом 7:3 победила канадских профессионалов из НХЛ в стартовом матче эпохальной Супер серии СССР-Канада. Это была не просто игра, это была битва за свою страну, которая перевернула мировое представление о хоккее. Теперь весь мир знал его просто по номеру «17». Валерий Харламов, забивший в том матче 2 шайбы мгновенно взлетел на вершину славы. Сбылась его мечта -упорство, спортивный талант и суровые уроки великого тренера Анатолия Тарасова сделали из «номера 17» легенду мирового хоккея.



Файл
Качество: BDRip (720p)
Видео: MPEG-4 AVC, 8100 Кбит/с, 1280x536
Аудио: DTS, 6 ch, 1510 Кбит/с
Размер: 9.17 ГБ
Продолжительность: 02:13:53
Язык: Русский
General
Unique ID : 206771009940819070118673623804362843105 (0x9B8EA5E134BEE49F9B8EF34A2E2363E1)
Complete name : Legenda.17.2013.O.BDRip.720p.IRONCLUB.mkv
Format : Matroska
Format version : Version 4 / Version 2
File size : 9.17 GiB
Duration : 2h 13mn
Overall bit rate : 9 805 Kbps
Movie name : IRONCLUB
Encoded date : UTC 2013-05-26 04:08:09
Writing application : mkvmerge v6.1.0 ('Old Devil') built on Mar 2 2013 14:32:37
Writing library : libebml v1.3.0 + libmatroska v1.4.0

Video
ID : 1
Format : AVC
Format/Info : Advanced Video Codec
Format profile : High@L4.1
Format settings, CABAC : Yes
Format settings, ReFrames : 12 frames
Codec ID : V_MPEG4/ISO/AVC
Duration : 2h 13mn
Bit rate : 8 100 Kbps
Width : 1 280 pixels
Height : 536 pixels
Display aspect ratio : 2.40:1
Frame rate : 24.000 fps
Color space : YUV
Chroma subsampling : 4:2:0
Bit depth : 8 bits
Scan type : Progressive
Bits/(Pixel*Frame) : 0.492
Stream size : 7.58 GiB (83%)
Title : Legenda 17 2013 720p BluRay DTS x264-IRONCLUB
Writing library : x264 core 132 r2309kMod 3b1f1f7
Encoding settings : cabac=1 / ref=12 / deblock=1:-3:-3 / analyse=0x3:0x113 / me=umh / subme=11 / psy=1 / fade_compensate=0.00 / psy_rd=1.10:0.00 / mixed_ref=1 / me_range=48 / chroma_me=1 / trellis=2 / 8x8dct=1 / cqm=0 / deadzone=21,11 / fast_pskip=0 / chroma_qp_offset=-2 / threads=12 / lookahead_threads=2 / sliced_threads=0 / nr=0 / decimate=1 / interlaced=0 / bluray_compat=0 / constrained_intra=0 / bframes=9 / b_pyramid=2 / b_adapt=2 / b_bias=0 / direct=3 / weightb=1 / open_gop=0 / weightp=2 / keyint=250 / keyint_min=24 / scenecut=40 / intra_refresh=0 / rc_lookahead=60 / rc=crf / mbtree=0 / crf=17.5000 / qcomp=0.75 / qpmin=0 / qpmax=69 / qpstep=4 / vbv_maxrate=50000 / vbv_bufsize=62500 / crf_max=0.0 / nal_hrd=none / ip_ratio=1.30 / pb_ratio=1.10 / aq=1:0.80
Language : Russian
Default : Yes
Forced : Yes
Matrix coefficients : BT.709-5, BT.1361, IEC 61966-2-4 709, SMPTE RP177

Audio
ID : 2
Format : DTS
Format/Info : Digital Theater Systems
Codec ID : A_DTS
Duration : 2h 13mn
Bit rate mode : Constant
Bit rate : 1 510 Kbps
Channel(s) : 6 channels
Channel positions : Front: L C R, Side: L R, LFE
Sampling rate : 48.0 KHz
Bit depth : 16 bits
Compression mode : Lossy
Stream size : 1.41 GiB (15%)
Title : DTS 5.1 @ 1536 kbps
Language : Russian
Default : Yes
Forced : Yes

Menu
00:00:00.000 : ru:00:00:00.000
00:07:01.708 : ru:00:07:01.708
00:14:53.083 : ru:00:14:53.083
00:22:34.208 : ru:00:22:34.208
00:28:59.500 : ru:00:28:59.500
00:37:15.500 : ru:00:37:15.500
00:45:29.625 : ru:00:45:29.625
00:57:35.291 : ru:00:57:35.291
01:08:11.791 : ru:01:08:11.791
01:17:34.208 : ru:01:17:34.208
01:26:25.541 : ru:01:26:25.541
01:34:09.208 : ru:01:34:09.208
01:43:26.458 : ru:01:43:26.458
01:49:54.083 : ru:01:49:54.083
01:58:50.791 : ru:01:58:50.791
02:07:19.291 : ru:02:07:19.291




Релиз от:



   Похожие торренты   Торрент   Размер 
В этой теме нет новых непрочитанных сообщений. Легенда №17 (2013) BDRip 720p от leonardo 59 | Лицензия

479 | 22

6.05 ГБ

В этой теме нет новых непрочитанных сообщений. Легенда №17 (2013) BDRip 720p от HQ-ViDEO | Лицензия

192 | 6

6.65 ГБ

В этой теме нет новых непрочитанных сообщений. Легенда №17 (2013) BDRip 1080p | Лицензия

267 | 15

16.31 ГБ

В этой теме нет новых непрочитанных сообщений. Легенда №17 (2013) BDRip от Youtracker | Лицензия

55 | 16

840.82 МБ

В этой теме нет новых непрочитанных сообщений. Легенда №17 (2013) BDRip-AVC от potroks | Лицензия

193 | 13

2.19 ГБ

В этой теме нет новых непрочитанных сообщений. Легенда №17 (2013) BDRip от HQCLUB | Лицензия

968 | 34

2.18 ГБ

В этой теме нет новых непрочитанных сообщений. Легенда №17 (2013) BDRip от Youtracker | лицензия

37 | 5

2.19 ГБ




Вы не можете начинать темы
Вы не можете отвечать на сообщения
Вы не можете редактировать свои сообщения
Вы не можете удалять свои сообщения
Вы не можете добавлять вложения

Перейти:  
Для Мосгорсуда, Роскомнадзора и рекламодателей: mosgorsud-torrent[собачка]yandex.ru
 Вход
ppkBB3cker v.2 © 2008-2014 @ PPK
[ Time : 0.049s | 15 Queries | GZIP : Off ]

Торрент трекер RUTOR.IN, Не можете зайти на rutor.org? Какой новый адрес рутор? Какое зеркало рутор? Не работает rutor.org и зеркала? Тогда наш торрент специально для вас. Rutor.in неофициальное зеркало rutor. В случае если у Вас заблокирован rutor или вдруг Вы не можете на него зайти, то Вы без труда сможете скачать бесплатно и без рекламы последние новинки кино, игр, сериалов и прочего у нас, на Rutor.in. Не нужно использовать прокси, чтобы зайти на рутор, достаточно воспользоваться нашим ресурсом. Все новые фильмы, игры, сериалы, книги и музыка за 2013 и 2014 годы через торрент бесплатно. Скачивайте фильмы в хорошем качестве, игры для пк, xbox, playstation без регистрации. У нас вы найдете новые Зарубежные сериалы и Русские сериалы 2013, 2014, 2015 годов. Оставайтесь с нами, качайте любимые фильмы, игры, сериалы, книги и музыку.
cron