img image001 image001 image001 image001 image001 image001 image001 image001 image001 image001 image001 image001 image001 image001 image001

Planets Sun Sun Sun
Статистика раздачи
Автор: Снежана | Размер: 3.15 ГБ | Добавлен: 24 июл 2013
Раздают: 0    Качают: 2
Скачать торрент
Скачать торрент
Описание торрента

СообщениеДобавлено: 24 июл 2013 

Жанр: комедия
Год выпуска: 2012
Продолжительность: 01:22:48

Режиссёр: Ирина Гедрович

В ролях: Александр Бобров, Дарья Сагалова, Даниил Спиваковский, Андрей Федорцов, Александр Леньков, Ольга Волкова, Семён Стругачёв, Вилле Хаапасало, Альберт Филозов, Владимир Стержаков, Максим Литовченко, Пак Хек Су
Описание: Московскому музею дарят бесценный экспонат - единственное в мире чучело птицы додо. Об этом узнаёт безумный миллиардер из неназванной восточной страны - страстный коллекционер чучел. Он поручает гангстерам подменить чучело додо и привезти ему оригинал. Гангстеры обращаются к российским коллегам...
Семпл
Качество видео: DVB
Формат видео: MPEG-PS

Видео: MPEG2 Video, 720x576 (4:3), 25 fps, 5142 Kbps, 0.496 bit/pixel
Аудио: MPEG Audio, 48000 Hz, 2 channels, 192 Кбит/сек
Complete name : E:День Додо.mpg
Format : MPEG-PS
File size : 3.15 GiB
Duration : 1h 22mn
Overall bit rate mode : Variable
Overall bit rate : 5 442 Kbps
Writing library : (c) 1998-2012 Womble Multimedia, Inc. / MPEG Video Wizard DVD 5.0.1.100 (03/2011) / Sep 7 2012

Video
ID : 224 (0xE0)
Format : MPEG Video
Format version : Version 2
Format profile : Main@Main
Format settings, BVOP : Yes
Format settings, Matrix : Custom
Format settings, GOP : M=1, N=29
Duration : 1h 22mn
Bit rate mode : Variable
Bit rate : 5 142 Kbps
Maximum bit rate : 15.0 Mbps
Width : 720 pixels
Height : 576 pixels
Display aspect ratio : 4:3
Frame rate : 25.000 fps
Standard : PAL
Color space : YUV
Chroma subsampling : 4:2:0
Bit depth : 8 bits
Scan type : Interlaced
Scan order : Top Field First
Compression mode : Lossy
Bits/(Pixel*Frame) : 0.496
Stream size : 2.97 GiB (94%)
Writing library : (c) 1998-2012 Womble Multimedia, Inc. / MPEG Video Wizard DVD 5.0.1.100 (03/2011) / Sep 7 2012

Audio
ID : 192 (0xC0)
Format : MPEG Audio
Format version : Version 1
Format profile : Layer 2
Duration : 1h 22mn
Bit rate mode : Constant
Bit rate : 192 Kbps
Channel(s) : 2 channels
Sampling rate : 48.0 KHz
Compression mode : Lossy
Stream size : 114 MiB (4%)





   Похожие торренты   Торрент   Размер 
В этой теме нет новых непрочитанных сообщений. День Додо (2012) SATRip

29 | 3

966.74 МБ

В этой теме нет новых непрочитанных сообщений. Малыш Додо / Kleiner Dodo [01-13 из 13] (2008) DVDRip

3 | 1

1.09 ГБ

В этой теме нет новых непрочитанных сообщений. Легкая атлетика. Бриллиантовая Лига 2012 / Diamond League 2012. Этап 3. Рим (Италия) (2012) SATRip

0 | 9

1.76 ГБ

В этой теме нет новых непрочитанных сообщений. ХII Национальный фестиваль белорусской песни и поэзии Молодечно-2012 / Маладзечна-2012 (2012) SATRip от AND01AND

0 | 2

4.97 ГБ

В этой теме нет новых непрочитанных сообщений. Легкая атлетика. Бриллиантовая Лига 2012 / Diamond League 2012. Этап 4. Юджин (США) (2012) SATRip

26 | 6

1.71 ГБ

В этой теме нет новых непрочитанных сообщений. Чемпионат мира по ралли 2012 / World Rally Championship (WRC) 2012. 11/13. Франция. Обзор (2012) DVBRip

0 | 4

7.41 ГБ

В этой теме нет новых непрочитанных сообщений. Легкая атлетика. Бриллиантовая Лига 2012 / Diamond League 2012. Этап 6. Нью-Йорк (США) (2012) SATRip

0 | 2

1.62 ГБ




Вы не можете начинать темы
Вы не можете отвечать на сообщения
Вы не можете редактировать свои сообщения
Вы не можете удалять свои сообщения
Вы не можете добавлять вложения

Перейти:  
Для Мосгорсуда, Роскомнадзора и рекламодателей: mosgorsud-torrent[собачка]yandex.ru
 Вход
ppkBB3cker v.2 © 2008-2014 @ PPK
[ Time : 0.017s | 14 Queries | GZIP : Off ]

Торрент трекер RUTOR.IN, Не можете зайти на rutor.org? Какой новый адрес рутор? Какое зеркало рутор? Не работает rutor.org и зеркала? Тогда наш торрент специально для вас. Rutor.in неофициальное зеркало rutor. В случае если у Вас заблокирован rutor или вдруг Вы не можете на него зайти, то Вы без труда сможете скачать бесплатно и без рекламы последние новинки кино, игр, сериалов и прочего у нас, на Rutor.in. Не нужно использовать прокси, чтобы зайти на рутор, достаточно воспользоваться нашим ресурсом. Все новые фильмы, игры, сериалы, книги и музыка за 2013 и 2014 годы через торрент бесплатно. Скачивайте фильмы в хорошем качестве, игры для пк, xbox, playstation без регистрации. У нас вы найдете новые Зарубежные сериалы и Русские сериалы 2013, 2014, 2015 годов. Оставайтесь с нами, качайте любимые фильмы, игры, сериалы, книги и музыку.