img image001 image001 image001 image001 image001 image001 image001 image001 image001 image001 image001 image001 image001 image001 image001

Planets Sun Sun Sun
Статистика раздачи
Автор: Снежана | Размер: 2.26 ГБ | Добавлен: 24 июл 2013
Раздают: 3    Качают: 2
Скачать торрент
Скачать торрент
Описание торрента

СообщениеДобавлено: 24 июл 2013 

Жанр: комедия, спорт
Год выпуска: 2011
Продолжительность: 01:28:29

Режиссёр: Мария Маханько

В ролях: Валерий Баринов, Дарья Чаруша, Михаил Станкевич, Егор Баринов, Алена и Анастасия Антоновы, Валентина Рубцова, Максим Коновалов, Павел Сборщиков

Описание: Строительная компания, чтобы выиграть тендер на возведение крупного стадиона, вынуждена собрать из своих сотрудниц. .. футбольную команду! А всё потому, что заказчик больше всего на свете, видите ли, любит две вещи — футбол и женщин!

И вот девушки, никогда не смотревшие футбол даже по телевизору, включая секретаршу, экономиста, крановщицу, маляршу, шлифмастера, повариху и охранницу, вынуждены снять шпильки и надеть бутсы…


Сэмпл: http://multi-up.com/810926

Качество видео: DVB
Формат видео: MPEG-PS

Видео: MPEG-2 Video, 720x576 (4:3), 25 fps, 3 384 Kbps, 0.33 bit/pixel
Аудио: 48 kHz, MPEG Audio, 2 ch, 192 kbps
General
Complete name : C:Мужская женская игра_2011_DVB_by_dean10.mpg
Format : MPEG-PS
File size : 2.26 GiB
Duration : 1h 28mn
Overall bit rate mode : Variable
Overall bit rate : 3 649 Kbps

Video
ID : 224 (0xE0)
Format : MPEG Video
Format version : Version 2
Format profile : Main@Main
Format settings, BVOP : Yes
Format settings, Matrix : Custom
Duration : 1h 28mn
Bit rate mode : Variable
Bit rate : 3 384 Kbps
Maximum bit rate : 15.0 Mbps
Width : 720 pixels
Height : 576 pixels
Display aspect ratio : 4:3
Frame rate : 25.000 fps
Standard : PAL
Color space : YUV
Chroma subsampling : 4:2:0
Bit depth : 8 bits
Scan type : Interlaced
Scan order : Top Field First
Compression mode : Lossy
Bits/(Pixel*Frame) : 0.326
Stream size : 2.09 GiB (93%)

Audio
ID : 192 (0xC0)
Format : MPEG Audio
Format version : Version 1
Format profile : Layer 2
Duration : 1h 28mn
Bit rate mode : Constant
Bit rate : 192 Kbps
Channel(s) : 2 channels
Sampling rate : 48.0 KHz
Compression mode : Lossy
Stream size : 122 MiB (5%)





   Похожие торренты   Торрент   Размер 
В этой теме нет новых непрочитанных сообщений. Мужская женская игра (2011) SATRip

11 | 2

1.29 ГБ

В этой теме нет новых непрочитанных сообщений. Мужская женская игра (2011) SATRip

1 | 2

699.1 МБ

В этой теме нет новых непрочитанных сообщений. Мужская женская игра (2011) SATRip - КинозалSAT

7 | 3

1.37 ГБ

В этой теме нет новых непрочитанных сообщений. Мужская еда с Андреем Бугайским [01-162] + Мужская еда с Владом Пискуновым [01-18] (2010) SATRip

158 | 87

17.55 ГБ

В этой теме нет новых непрочитанных сообщений. Мужская работа / L'homme de la situation (2011) SatRip | P

61 | 4

1.37 ГБ

В этой теме нет новых непрочитанных сообщений. Женская логика [7] (2011 ) SATRip

0 | 4

628.64 МБ

В этой теме нет новых непрочитанных сообщений. Женская лига [80] (2011) SATRip

1 | 3

248.82 МБ




Вы не можете начинать темы
Вы не можете отвечать на сообщения
Вы не можете редактировать свои сообщения
Вы не можете удалять свои сообщения
Вы не можете добавлять вложения

Перейти:  
Для Мосгорсуда, Роскомнадзора и рекламодателей: mosgorsud-torrent[собачка]yandex.ru
 Вход
ppkBB3cker v.2 © 2008-2014 @ PPK
[ Time : 0.103s | 17 Queries | GZIP : Off ]

Торрент трекер RUTOR.IN, Не можете зайти на rutor.org? Какой новый адрес рутор? Какое зеркало рутор? Не работает rutor.org и зеркала? Тогда наш торрент специально для вас. Rutor.in неофициальное зеркало rutor. В случае если у Вас заблокирован rutor или вдруг Вы не можете на него зайти, то Вы без труда сможете скачать бесплатно и без рекламы последние новинки кино, игр, сериалов и прочего у нас, на Rutor.in. Не нужно использовать прокси, чтобы зайти на рутор, достаточно воспользоваться нашим ресурсом. Все новые фильмы, игры, сериалы, книги и музыка за 2013 и 2014 годы через торрент бесплатно. Скачивайте фильмы в хорошем качестве, игры для пк, xbox, playstation без регистрации. У нас вы найдете новые Зарубежные сериалы и Русские сериалы 2013, 2014, 2015 годов. Оставайтесь с нами, качайте любимые фильмы, игры, сериалы, книги и музыку.