img image001 image001 image001 image001 image001 image001 image001 image001 image001 image001 image001 image001 image001 image001 image001 image001

Planets Sun Sun Sun
Статистика раздачи
Автор: Снежана | Размер: 2.26 ГБ | Добавлен: 24 июл 2013
Раздают: 3    Качают: 2
Скачать торрент
Скачать торрент
Описание торрента

СообщениеДобавлено: 24 июл 2013 

Жанр: комедия, спорт
Год выпуска: 2011
Продолжительность: 01:28:29

Режиссёр: Мария Маханько

В ролях: Валерий Баринов, Дарья Чаруша, Михаил Станкевич, Егор Баринов, Алена и Анастасия Антоновы, Валентина Рубцова, Максим Коновалов, Павел Сборщиков

Описание: Строительная компания, чтобы выиграть тендер на возведение крупного стадиона, вынуждена собрать из своих сотрудниц. .. футбольную команду! А всё потому, что заказчик больше всего на свете, видите ли, любит две вещи — футбол и женщин!

И вот девушки, никогда не смотревшие футбол даже по телевизору, включая секретаршу, экономиста, крановщицу, маляршу, шлифмастера, повариху и охранницу, вынуждены снять шпильки и надеть бутсы…


Сэмпл: http://multi-up.com/810926

Качество видео: DVB
Формат видео: MPEG-PS

Видео: MPEG-2 Video, 720x576 (4:3), 25 fps, 3 384 Kbps, 0.33 bit/pixel
Аудио: 48 kHz, MPEG Audio, 2 ch, 192 kbps
General
Complete name : C:Мужская женская игра_2011_DVB_by_dean10.mpg
Format : MPEG-PS
File size : 2.26 GiB
Duration : 1h 28mn
Overall bit rate mode : Variable
Overall bit rate : 3 649 Kbps

Video
ID : 224 (0xE0)
Format : MPEG Video
Format version : Version 2
Format profile : Main@Main
Format settings, BVOP : Yes
Format settings, Matrix : Custom
Duration : 1h 28mn
Bit rate mode : Variable
Bit rate : 3 384 Kbps
Maximum bit rate : 15.0 Mbps
Width : 720 pixels
Height : 576 pixels
Display aspect ratio : 4:3
Frame rate : 25.000 fps
Standard : PAL
Color space : YUV
Chroma subsampling : 4:2:0
Bit depth : 8 bits
Scan type : Interlaced
Scan order : Top Field First
Compression mode : Lossy
Bits/(Pixel*Frame) : 0.326
Stream size : 2.09 GiB (93%)

Audio
ID : 192 (0xC0)
Format : MPEG Audio
Format version : Version 1
Format profile : Layer 2
Duration : 1h 28mn
Bit rate mode : Constant
Bit rate : 192 Kbps
Channel(s) : 2 channels
Sampling rate : 48.0 KHz
Compression mode : Lossy
Stream size : 122 MiB (5%)





   Похожие торренты   Торрент   Размер 
В этой теме нет новых непрочитанных сообщений. Мужская компания (1992) TVRip

147 | 29

748.95 МБ

В этой теме нет новых непрочитанных сообщений. Анатолий Жемаев - Мужская территория (2007) MP3

0 | 2

101.19 МБ

В этой теме нет новых непрочитанных сообщений. Мужская работа [01-02] (2015) WEB-DLRip от Generalfilm

4 | 2

4.85 ГБ

В этой теме нет новых непрочитанных сообщений. Мужская работа [01-02] (2015) WEB-DLRip от Generalfilm

1 | 0

5.17 ГБ

В этой теме нет новых непрочитанных сообщений. Мужская работа [01-02] (2015) WEB-DLRip от Generalfilm

2 | 3

4.53 ГБ

В этой теме нет новых непрочитанных сообщений. Мужская работа [01-02] (2015) WEB-DLRip от Generalfilm

3 | 0

3.89 ГБ

В этой теме нет новых непрочитанных сообщений. Мужская работа [01-02] (2015) WEB-DLRip от Generalfilm

0 | 0

4.21 ГБ




Вы не можете начинать темы
Вы не можете отвечать на сообщения
Вы не можете редактировать свои сообщения
Вы не можете удалять свои сообщения
Вы не можете добавлять вложения

Перейти:  
 Вход
ppkBB3cker v.2 © 2008-2014 @ PPK
[ Time : 0.036s | 15 Queries | GZIP : Off ]

cron