img image001 image001 image001 image001 image001 image001 image001 image001 image001 image001 image001 image001 image001 image001 image001

Planets Sun Sun Sun
Статистика раздачи
Автор: Снежана | Размер: 3.5 ГБ | Добавлен: 24 июл 2013
Раздают: 0    Качают: 1
Скачать торрент
Скачать торрент
Описание торрента

СообщениеДобавлено: 24 июл 2013 

#77
Жанр: криминальный, приключения
Год выпуска: 2012
Продолжительность: 01:32:05
Режиссёр: Игорь Нурисламов

В ролях: Александр Половцев, Евгений Дятлов, Георгий Штиль, Олег Андреев, Михаил Лучко, Вероника Норина, Юлия Соболевская, Альберт Барбарич, Борис Чердынцев, Александр Большаков, Александр Кудренко, Сергей Соболев, Михаил Долгинин, Татьяна Ткач, Владимир Баранов, Самвел Мужикян, Геннадий Меньшиков, Юрий Гальцев, Артем Анчуков, Владимир Глазков, Антон Хатеев, Илья Савельев, Андрей Мишин, Наталия Тарыничева, Егор Петренко, Андрей Грязнов, Роман Притула, Максим Студеновский, Михаил Масляков
Описание: Как известно, для оперативников из межрайонного управления по расследованию убийств Санкт-Петербурга и области работа найдется и в будни, и в праздники. Новый год застал их, как обычно, на службе. Но, несмотря на праздничную суету, убойный отдел живет в обычном ритме: ведь, когда жизни десятков людей угрожает опасность, опера готовы прийти на помощь даже в новогоднюю ночь...
Семпл
Качество видео: DVB
Формат видео: MPEG-PS

Видео: MPEG2 Video, 720x576 (4:3), 25 fps, 5142 Kbps, 0.496 bit/pixel
Аудио: MPEG Audio, 48000 Hz, 2 channels, 192 Кбит/сек
General
Complete name : E:Зимний круиз.mpg
Format : MPEG-PS
File size : 3.50 GiB
Duration : 1h 32mn
Overall bit rate mode : Variable
Overall bit rate : 5 442 Kbps
Writing library : (c) 1998-2012 Womble Multimedia, Inc. / MPEG Video Wizard DVD 5.0.1.100 (03/2011) / Sep 7 2012

Video
ID : 224 (0xE0)
Format : MPEG Video
Format version : Version 2
Format profile : Main@Main
Format settings, BVOP : Yes
Format settings, Matrix : Custom
Format settings, GOP : M=1, N=26
Duration : 1h 32mn
Bit rate mode : Variable
Bit rate : 5 142 Kbps
Maximum bit rate : 15.0 Mbps
Width : 720 pixels
Height : 576 pixels
Display aspect ratio : 4:3
Frame rate : 25.000 fps
Standard : PAL
Color space : YUV
Chroma subsampling : 4:2:0
Bit depth : 8 bits
Scan type : Interlaced
Scan order : Top Field First
Compression mode : Lossy
Bits/(Pixel*Frame) : 0.496
Stream size : 3.31 GiB (94%)
Writing library : (c) 1998-2012 Womble Multimedia, Inc. / MPEG Video Wizard DVD 5.0.1.100 (03/2011) / Sep 7 2012

Audio
ID : 192 (0xC0)
Format : MPEG Audio
Format version : Version 1
Format profile : Layer 2
Duration : 1h 32mn
Bit rate mode : Constant
Bit rate : 192 Kbps
Channel(s) : 2 channels
Sampling rate : 48.0 KHz
Compression mode : Lossy
Stream size : 126 MiB (4%)





   Похожие торренты   Торрент   Размер 
В этой теме нет новых непрочитанных сообщений. Зимний круиз (2012) SATRip

30 | 3

1.04 ГБ

В этой теме нет новых непрочитанных сообщений. Зимний круиз (2012) WEB-DL 1080p

0 | 2

3.35 ГБ

В этой теме нет новых непрочитанных сообщений. Зимний круиз (2012) SATRip от КинозалSAT

2 | 3

700.59 МБ

В этой теме нет новых непрочитанных сообщений. Зимний круиз (2012) WEB-DLRip от Generalfilm

17 | 3

1.37 ГБ

В этой теме нет новых непрочитанных сообщений. Зимний круиз (2012) WEB-DLRip 720р от Generalfilm

2 | 4

2.76 ГБ

В этой теме нет новых непрочитанных сообщений. Один безумный круиз / Этот безумный круиз / One Crazy Cruise (2015) WEB-DLRip | D

3849 | 346

1.37 ГБ

В этой теме нет новых непрочитанных сообщений. Сборник клипов - Зимний марафон № 220 [Зимний Снегопад Хитов] (2016) HDTVRip 1080p

709 | 51

3.63 ГБ




Вы не можете начинать темы
Вы не можете отвечать на сообщения
Вы не можете редактировать свои сообщения
Вы не можете удалять свои сообщения
Вы не можете добавлять вложения

Перейти:  
Для Мосгорсуда, Роскомнадзора и рекламодателей: mosgorsud-torrent[собачка]yandex.ru
 Вход
ppkBB3cker v.2 © 2008-2014 @ PPK
[ Time : 0.017s | 14 Queries | GZIP : Off ]

Торрент трекер RUTOR.IN, Не можете зайти на rutor.org? Какой новый адрес рутор? Какое зеркало рутор? Не работает rutor.org и зеркала? Тогда наш торрент специально для вас. Rutor.in неофициальное зеркало rutor. В случае если у Вас заблокирован rutor или вдруг Вы не можете на него зайти, то Вы без труда сможете скачать бесплатно и без рекламы последние новинки кино, игр, сериалов и прочего у нас, на Rutor.in. Не нужно использовать прокси, чтобы зайти на рутор, достаточно воспользоваться нашим ресурсом. Все новые фильмы, игры, сериалы, книги и музыка за 2013 и 2014 годы через торрент бесплатно. Скачивайте фильмы в хорошем качестве, игры для пк, xbox, playstation без регистрации. У нас вы найдете новые Зарубежные сериалы и Русские сериалы 2013, 2014, 2015 годов. Оставайтесь с нами, качайте любимые фильмы, игры, сериалы, книги и музыку.