img image001 image001 image001 image001 image001 image001 image001 image001 image001 image001 image001 image001 image001 image001 image001

Planets Sun Sun Sun
Статистика раздачи
Автор: Снежана | Размер: 1.93 ГБ | Добавлен: 24 июл 2013
Раздают: 2    Качают: 2
Скачать торрент
Скачать торрент
Описание торрента

СообщениеДобавлено: 24 июл 2013 

Жанр: комедия
Год выпуска: 2011
Продолжительность: 01:15:45

Режиссёр: Николай Карман

В ролях: Ирина Безрукова, Владислав Петровский, Агния Кузнецова, Эвелина Блёданс, Виктор Цекало, Андрей Гайдулян, Наталья Василева, Олег Сорокин, Дмитрий Гоголин, Анатолий Василев, Владимир Лекус, Станислав Ворхинцев, Нина Карман, Валентина Архипова, Октябрина Головачева, Екатерина Мусаткина, Екатерина Казаченок, Ирина Высоцкая, Ольга Ямщикова, Андрей Муханов, Лиза Баторевич, Юлия Рыжкина, Людмила Семкова, Анна Ямщикова, Карина Тернющенко, Юлия Медведникова, Наталья Меренкова, Александр Бабуркин, Валентина Зыкина, Ирина Кузьмина, Елизавета Цветкова

Описание: Марина — успешная деловая женщина все свое время посвящает работе и постепенно теряет контакт с повзрослевшей 17-летней дочерью Машей, которая все свое свободное время проводит в Интернете. Больше всего Маша любит зависать и развлекаться на сайтах знакомств. Марина постепенно понимает, что теряет контроль над дочерью и знакомится с ней на том же сайте под именем Сергея Смирнова — своей первой любви. Поможет ли обман найти путь к сердцу дочери или Марина найдет другое решение…

Качество видео: DVB
Формат видео: MPEG-PS

Видео: MPEG-2 Video, 720x576 (4:3), 25 fps, 3 384 Kbps, 0.33 bit/pixel
Аудио: 48 kHz, MPEG Audio, 2 ch, 192 kbps
General
Complete name : C:Полный контакт_2011_DVB_by_dean10.mpg
Format : MPEG-PS
File size : 1.93 GiB
Duration : 1h 15mn
Overall bit rate mode : Variable
Overall bit rate : 3 648 Kbps

Video
ID : 224 (0xE0)
Format : MPEG Video
Format version : Version 2
Format profile : Main@Main
Format settings, BVOP : Yes
Format settings, Matrix : Custom
Duration : 1h 15mn
Bit rate mode : Variable
Bit rate : 3 384 Kbps
Maximum bit rate : 15.0 Mbps
Width : 720 pixels
Height : 576 pixels
Display aspect ratio : 4:3
Frame rate : 25.000 fps
Standard : PAL
Color space : YUV
Chroma subsampling : 4:2:0
Bit depth : 8 bits
Scan type : Interlaced
Scan order : Top Field First
Compression mode : Lossy
Bits/(Pixel*Frame) : 0.326
Stream size : 1.79 GiB (93%)

Audio
ID : 192 (0xC0)
Format : MPEG Audio
Format version : Version 1
Format profile : Layer 2
Duration : 1h 15mn
Bit rate mode : Constant
Bit rate : 192 Kbps
Channel(s) : 2 channels
Sampling rate : 48.0 KHz
Compression mode : Lossy
Stream size : 104 MiB (5%)






   Похожие торренты   Торрент   Размер 
В этой теме нет новых непрочитанных сообщений. Полный контакт (2011) HDTVRip-AVC от Files-x

43 | 5

1.37 ГБ

В этой теме нет новых непрочитанных сообщений. Полный контакт (2011) SATRip от КинозалSAT

14 | 3

1.17 ГБ

В этой теме нет новых непрочитанных сообщений. Полный контакт (2011) HDTVRip от Files-x

101 | 5

1.17 ГБ

В этой теме нет новых непрочитанных сообщений. Полный контакт (2011) HDTV 1080i от Files-x

18 | 4

4.61 ГБ

В этой теме нет новых непрочитанных сообщений. Полный контакт / Xia dao Gao Fei (1993) DVDRip

0 | 3

702.76 МБ

В этой теме нет новых непрочитанных сообщений. Полный контакт / Xia dao Gao Fei (1992) DVDRip от NovaLan

0 | 10

1.37 ГБ

В этой теме нет новых непрочитанных сообщений. Полный контакт. Вести.FM [эфир от 26.02] (2015) SATRemux от -=HD-NET=-

0 | 10

2.14 ГБ




Вы не можете начинать темы
Вы не можете отвечать на сообщения
Вы не можете редактировать свои сообщения
Вы не можете удалять свои сообщения
Вы не можете добавлять вложения

Перейти:  
Для Мосгорсуда, Роскомнадзора и рекламодателей: mosgorsud-torrent[собачка]yandex.ru
 Вход
ppkBB3cker v.2 © 2008-2014 @ PPK
[ Time : 0.038s | 14 Queries | GZIP : Off ]

Торрент трекер RUTOR.IN, Не можете зайти на rutor.org? Какой новый адрес рутор? Какое зеркало рутор? Не работает rutor.org и зеркала? Тогда наш торрент специально для вас. Rutor.in неофициальное зеркало rutor. В случае если у Вас заблокирован rutor или вдруг Вы не можете на него зайти, то Вы без труда сможете скачать бесплатно и без рекламы последние новинки кино, игр, сериалов и прочего у нас, на Rutor.in. Не нужно использовать прокси, чтобы зайти на рутор, достаточно воспользоваться нашим ресурсом. Все новые фильмы, игры, сериалы, книги и музыка за 2013 и 2014 годы через торрент бесплатно. Скачивайте фильмы в хорошем качестве, игры для пк, xbox, playstation без регистрации. У нас вы найдете новые Зарубежные сериалы и Русские сериалы 2013, 2014, 2015 годов. Оставайтесь с нами, качайте любимые фильмы, игры, сериалы, книги и музыку.