img image001 image001 image001 image001 image001 image001 image001 image001 image001 image001 image001 image001 image001 image001 image001

Planets Sun Sun Sun
Статистика раздачи
Автор: Снежана | Размер: 3.08 ГБ | Добавлен: 24 июл 2013
Раздают: 12    Качают: 2
Скачать торрент
Скачать торрент
Описание торрента

СообщениеДобавлено: 24 июл 2013 

Жанр: комедия, мелодрама
Год выпуска: 2007
Продолжительность: 01:28:38

Режиссёр: Ольга Перуновская

В ролях: Евгения Дмитриева, Андрей Казаков, Анастасия Бусыгина, Мария Звонарёва, Кирилл Продолятченко, Алина Цибизова, Олег Леушин

Описание: Андрей, работающий в фирме "Муж на час", приезжает по вызову в квартиру одинокой женщины с ребенком. Лиза, хозяйка квартиры, случайно обливает его, Андрей раздевается до трусов, а вернувшийся домой Антон, сын Лизы, решает, что
Андрей - его папа. Теперь он мечтает только об одном - во что бы то ни стало поженить маму и Андрея...

Семпл: http://multi-up.com/808051
Релиз группы:
Качество видео: DVB
Формат видео: MPEG-PS

Видео: MPEG2 Video, 720x576 (4:3), 25 fps, 4636 Kbps (0.447 bit/pixel)
Аудио: MPEG Audio, 48000 Hz, 2 channels, 256 Кбит/сек
Общее
Полное имя : W:Video1Otcovskij.instinkt.(STB_2012_DVB)Muzh.na.chas.MPEG.2007.by.simka.mpg
Формат : MPEG-PS
Размер файла : 3,08 Гбайт
Продолжительность : 1 ч. 28 м.
Общий поток : 4970 Кбит/сек
Библиотека кодирования : (c) 1998-2010 Womble Multimedia, Inc. / MPEG Video Wizard DVD 5.0.0.114 (01/2010) / Nov 13 2010

Видео
Идентификатор : 224 (0xE0)
Формат : MPEG Video
Версия формата : Version 2
Профиль формата : Main@Main
Параметр BVOP формата : Да
Параметр матрицы формата : Выборочная
Параметры GOP формата : M=1, N=26
Продолжительность : 1 ч. 28 м.
Вид битрейта : Переменный
Битрейт : 4636 Кбит/сек
Ширина : 720 пикс.
Высота : 576 пикс.
Соотношение сторон : 4:3
Частота кадров : 25,000 кадр/сек
Стандарт вещания : PAL
Цветовое пространство : YUV
Подвыборка цветности : 4:2:0
Битовая глубина : 8 бит
Тип развёртки : Чересстрочная
Порядок развёртки : Верхнее поле первое
Метод сжатия : С потерями
Бит/(Пиксели*Кадры) : 0.447
Размер потока : 2,86 Гбайт (93%)
Библиотека кодирования : (c) 1998-2010 Womble Multimedia, Inc. / MPEG Video Wizard DVD 5.0.0.114 (01/2010) / Nov 13 2010

Аудио
Идентификатор : 192 (0xC0)
Формат : MPEG Audio
Версия формата : Version 1
Профиль формата : Layer 2
Продолжительность : 1 ч. 28 м.
Вид битрейта : Постоянный
Битрейт : 256 Кбит/сек
Каналы : 2 канала
Частота : 48,0 КГц
Метод сжатия : С потерями
Размер потока : 162 Мбайт (5%)





   Похожие торренты   Торрент   Размер 
В этой теме нет новых непрочитанных сообщений. RTL Зимние игры 2007 / RTL Winter Games 2007 (2007) PC

41 | 5

1.23 ГБ

В этой теме нет новых непрочитанных сообщений. RTL Лыжный трамплин 2007 / RTL Ski Jumping 2007 (2007) PC

31 | 2

1015.18 МБ

В этой теме нет новых непрочитанных сообщений. Акробатический РОК-Н-РОЛЛ. Детский Rock'n'roll -2007 (2007) DVD5

52 | 3

2.34 ГБ

В этой теме нет новых непрочитанных сообщений. Armin van Buuren - A State of Trance Year Mix 2007 [2CD] (2007) FLAC

0 | 2

923.29 МБ

В этой теме нет новых непрочитанных сообщений. Vengerov & Fedoroff - Za Ibiza special mix 2007 - Co-producer DJ Squire (2007) MP3

0 | 9

198.49 МБ

В этой теме нет новых непрочитанных сообщений. Хэллоуин 2007 / Halloween (2007) BDRip от Rulya74 | Unrated Director's Cut

49 | 43

1.94 ГБ

В этой теме нет новых непрочитанных сообщений. Paul McCartney - Live At The Roundhouse 25th October 2007 (2007) DVDRip от ImperiaFilm

87 | 16

1.54 ГБ




Вы не можете начинать темы
Вы не можете отвечать на сообщения
Вы не можете редактировать свои сообщения
Вы не можете удалять свои сообщения
Вы не можете добавлять вложения

Перейти:  
Для Мосгорсуда, Роскомнадзора и рекламодателей: mosgorsud-torrent[собачка]yandex.ru
 Вход
ppkBB3cker v.2 © 2008-2014 @ PPK
[ Time : 0.092s | 14 Queries | GZIP : Off ]
CGP output time : 0.075s | 5 Queries | GZIP : Off

Торрент трекер RUTOR.IN, Не можете зайти на rutor.org? Какой новый адрес рутор? Какое зеркало рутор? Не работает rutor.org и зеркала? Тогда наш торрент специально для вас. Rutor.in неофициальное зеркало rutor. В случае если у Вас заблокирован rutor или вдруг Вы не можете на него зайти, то Вы без труда сможете скачать бесплатно и без рекламы последние новинки кино, игр, сериалов и прочего у нас, на Rutor.in. Не нужно использовать прокси, чтобы зайти на рутор, достаточно воспользоваться нашим ресурсом. Все новые фильмы, игры, сериалы, книги и музыка за 2013 и 2014 годы через торрент бесплатно. Скачивайте фильмы в хорошем качестве, игры для пк, xbox, playstation без регистрации. У нас вы найдете новые Зарубежные сериалы и Русские сериалы 2013, 2014, 2015 годов. Оставайтесь с нами, качайте любимые фильмы, игры, сериалы, книги и музыку.