img image001 image001 image001 image001 image001 image001 image001 image001 image001 image001 image001 image001 image001 image001 image001

Planets Sun Sun Sun
Статистика раздачи
Автор: Снежана | Размер: 2.3 ГБ | Добавлен: 24 июл 2013
Раздают: 5    Качают: 5
Скачать торрент
Скачать торрент
Описание торрента

СообщениеДобавлено: 24 июл 2013 

Жанр: драма
Год выпуска: 2010
Продолжительность: 01:30:12

Режиссёр: Денис Карро

В ролях: Ангелина Миримская, Виктория Исакова, Алексей Девотченко, Ольга Тумайкина, Михаил Кабанов (II), Николай Козак, Дмитрий Ратомский, Ольга Стрелецкая, Андрей Таратухин, Светлана Дикаанидас, Александра Нижегородова

Описание: Фильм «Южный календарь» состоит из трех новелл, действия которых происходят на российском юге, на берегу Черного моря. Каждая новелла — это история человека, не вписавшегося в современную российскую действительность.

Первая история называется «Ничего» и рассказывает о директоре археологического музея. Музей нуждается в капитальном ремонте. Герой новеллы безуспешно пытается найти деньги на ремонт, но его музей никому не нужен — ни государству, ни представителям элиты общества. Зато уникальными экспонатами музея интересуются частные коллекционеры. Когда музей рушится от ветхости, директор начинает продавать принадлежащие государству экспонаты и на вырученные деньги отправляет лечиться больную дочку сотрудницы музея. Также в новелле говорится о разобщенности людей в современном мире, невозможности общаться, об одиночестве.

Вторая новелла — «Чайка» — рассказывает о сельской девушке, работающей посудомойкой в курортном пансионате. Она очарована блеском гламура, миром кино и шоу-бизнеса. Она потеряла реальные ориентиры в жизни, запуталась и не может найти выход.

Третья история — «Инжир» — рассказывает о морском офицере, уволенном из Черноморского флота по программе сокращения вооруженных сил. Он, так же как и остальные герои, потерял смысл своего существования и уезжает на поезде в поисках нового. Но окружающий мир говорит ему, что смысла нет, кругом ужас и пустота. Но все же, хоть у героев этих историй и нет выхода, финал третьей новеллы, который является одновременно и финалом фильма, дает надежду. Больная девочка, дочка сотрудницы музея, едет в Москву на операцию в одном поезде с офицером.

Сэмпл: http://multi-up.com/810006

Качество видео: DVB
Формат видео: MPEG-PS

Видео: MPEG-2 Video, 720x576 (4:3), 25 fps, 3 387 Kbps, 0.33 bit/pixel
Аудио: 48 kHz, MPEG Audio, 2 ch, 192 kbps
General
Complete name : C:Южный календарь_2010_DVB_by_dean10.mpg
Format : MPEG-PS
File size : 2.30 GiB
Duration : 1h 30mn
Overall bit rate mode : Variable
Overall bit rate : 3 652 Kbps

Video
ID : 224 (0xE0)
Format : MPEG Video
Format version : Version 2
Format profile : Main@Main
Format settings, BVOP : Yes
Format settings, Matrix : Custom
Duration : 1h 30mn
Bit rate mode : Variable
Bit rate : 3 387 Kbps
Maximum bit rate : 15.0 Mbps
Width : 720 pixels
Height : 576 pixels
Display aspect ratio : 4:3
Frame rate : 25.000 fps
Standard : PAL
Color space : YUV
Chroma subsampling : 4:2:0
Bit depth : 8 bits
Scan type : Interlaced
Scan order : Top Field First
Compression mode : Lossy
Bits/(Pixel*Frame) : 0.327
Stream size : 2.13 GiB (93%)

Audio
ID : 192 (0xC0)
Format : MPEG Audio
Format version : Version 1
Format profile : Layer 2
Duration : 1h 30mn
Bit rate mode : Constant
Bit rate : 192 Kbps
Channel(s) : 2 channels
Sampling rate : 48.0 KHz
Compression mode : Lossy
Stream size : 124 MiB (5%)





   Похожие торренты   Торрент   Размер 
В этой теме нет новых непрочитанных сообщений. Южный календарь (2010) SATRip

94 | 7

1 ГБ

В этой теме нет новых непрочитанных сообщений. Южный календарь (2010) IPTVRip от Files-x

2 | 3

1.37 ГБ

В этой теме нет новых непрочитанных сообщений. Южный календарь (2010) SATRip | RiperAM

0 | 2

1 ГБ

В этой теме нет новых непрочитанных сообщений. Ведический календарь. Славяно-арийский календарь Коляды Дар на лето 7521, 2012-2013 год (2013) JPEG

168 | 7

33.36 МБ

В этой теме нет новых непрочитанных сообщений. Playboy. Календарь (2010) PDF

2 | 3

3.11 МБ

В этой теме нет новых непрочитанных сообщений. Maxim. Календарь 2010 Россия (2010) JPEG

0 | 4

3.1 МБ

В этой теме нет новых непрочитанных сообщений. Playboy. Календарь 2011 (2010) PDF

1 | 2

8.12 МБ




Вы не можете начинать темы
Вы не можете отвечать на сообщения
Вы не можете редактировать свои сообщения
Вы не можете удалять свои сообщения
Вы не можете добавлять вложения

Перейти:  
Для Мосгорсуда, Роскомнадзора и рекламодателей: mosgorsud-torrent[собачка]yandex.ru
 Вход
ppkBB3cker v.2 © 2008-2014 @ PPK
[ Time : 0.038s | 15 Queries | GZIP : Off ]

Торрент трекер RUTOR.IN, Не можете зайти на rutor.org? Какой новый адрес рутор? Какое зеркало рутор? Не работает rutor.org и зеркала? Тогда наш торрент специально для вас. Rutor.in неофициальное зеркало rutor. В случае если у Вас заблокирован rutor или вдруг Вы не можете на него зайти, то Вы без труда сможете скачать бесплатно и без рекламы последние новинки кино, игр, сериалов и прочего у нас, на Rutor.in. Не нужно использовать прокси, чтобы зайти на рутор, достаточно воспользоваться нашим ресурсом. Все новые фильмы, игры, сериалы, книги и музыка за 2013 и 2014 годы через торрент бесплатно. Скачивайте фильмы в хорошем качестве, игры для пк, xbox, playstation без регистрации. У нас вы найдете новые Зарубежные сериалы и Русские сериалы 2013, 2014, 2015 годов. Оставайтесь с нами, качайте любимые фильмы, игры, сериалы, книги и музыку.