img image001 image001 image001 image001 image001 image001 image001 image001 image001 image001 image001 image001 image001 image001 image001

Planets Sun Sun Sun
Статистика раздачи
Автор: Снежана | Размер: 2.75 ГБ | Добавлен: 24 июл 2013
Раздают: 19    Качают: 2
Скачать торрент
Скачать торрент
Описание торрента

СообщениеДобавлено: 24 июл 2013 

Жанр: мистика, приключения, притча
Год выпуска: 2009
Выпущено: Россия
Продолжительность: 01:28:27

Режиссёр: Сергей Дебижев

В ролях: Алексей Серебряков, Ксения Раппопорт, Николай Мартон, Даниил Шигапов, Виктор Вержбицкий, Наталья Дюфрес, Сергей Бугаев (Африка), Георгий Просаловский, Алина Ван Ортон, Алла Михеева, Рената Литвинова, Вадим Сквирский, Михаил Ефремов, Аркадий Волгин, Андрей Родимов, Максим Гудков, Эмми Питерс, Анатолий Шведерский, Оксана Скакун, Анастасия Никитина

Описание: Алекс — модный персонаж из мира шоу-бизнеса. Однажды во французском журнале он натыкается на статью о крупном выигрыше в казино в колониальной Камбодже со старинной фотографией. На фотографии Алекс узнаёт своего деда, которого все считали погибшим. Выясняется, что дед Алекса много лет назад оставил ему наследство. Но до наследства еще надо добраться...



Качество видео: DVB
Формат видео: MPEG-PS

Видео: 720x576 25 fps 4174 Kbps
Аудио: MPEG Audio Layer 2 48000 Hz stereo 192 Kbps
General
Complete name : E:TOPЗолотое сечение_bySat.mpg
Format : MPEG-PS
File size : 2.75 GiB
Duration : 1h 28mn
Overall bit rate : 4 454 Kbps

Video
ID : 224 (0xE0)
Format : MPEG Video
Format version : Version 2
Format profile : Main@Main
Format settings, BVOP : Yes
Format settings, Matrix : Default
Duration : 1h 28mn
Bit rate mode : Variable
Bit rate : 4 174 Kbps
Nominal bit rate : 15.0 Mbps
Width : 720 pixels
Height : 576 pixels
Display aspect ratio : 4:3
Frame rate : 25.000 fps
Standard : PAL
Color space : YUV
Chroma subsampling : 4:2:0
Bit depth : 8 bits
Scan type : Interlaced
Scan order : Top Field First
Compression mode : Lossy
Bits/(Pixel*Frame) : 0.403
Stream size : 2.58 GiB (94%)

Audio
ID : 192 (0xC0)
Format : MPEG Audio
Format version : Version 1
Format profile : Layer 2
Duration : 1h 28mn
Bit rate mode : Constant
Bit rate : 192 Kbps
Channel(s) : 2 channels
Sampling rate : 48.0 KHz
Compression mode : Lossy
Stream size : 121 MiB (4%)




   Похожие торренты   Торрент   Размер 
В этой теме нет новых непрочитанных сообщений. Золотое сечение (2010) SATRip

38 | 5

1.26 ГБ

В этой теме нет новых непрочитанных сообщений. Золотое сечение (2010) SATRip от КинозалSAT

7 | 2

1.37 ГБ

В этой теме нет новых непрочитанных сообщений. Золотое сечение (2009) SATRip

147 | 13

1.45 ГБ

В этой теме нет новых непрочитанных сообщений. UFO: Extraterrestrials. Золотое издание (2010) PC | RePack

52 | 6

744.3 МБ

В этой теме нет новых непрочитанных сообщений. Александр Македонский: Золотое издание (2010) PC

104 | 12

1.69 ГБ

В этой теме нет новых непрочитанных сообщений. Дальнобойщики 3: Золотое Издание (2010) PC | RePack от R.G. Catalyst

3464 | 341

3.18 ГБ

В этой теме нет новых непрочитанных сообщений. Fallout 3: Золотое издание (2010) PC | все 5 DLC на русском языке

5672 | 256

7.22 ГБ




Вы не можете начинать темы
Вы не можете отвечать на сообщения
Вы не можете редактировать свои сообщения
Вы не можете удалять свои сообщения
Вы не можете добавлять вложения

Перейти:  
Для Мосгорсуда, Роскомнадзора и рекламодателей: mosgorsud-torrent[собачка]yandex.ru
 Вход
ppkBB3cker v.2 © 2008-2014 @ PPK
[ Time : 0.624s | 15 Queries | GZIP : On ]

Торрент трекер RUTOR.IN, Не можете зайти на rutor.org? Какой новый адрес рутор? Какое зеркало рутор? Не работает rutor.org и зеркала? Тогда наш торрент специально для вас. Rutor.in неофициальное зеркало rutor. В случае если у Вас заблокирован rutor или вдруг Вы не можете на него зайти, то Вы без труда сможете скачать бесплатно и без рекламы последние новинки кино, игр, сериалов и прочего у нас, на Rutor.in. Не нужно использовать прокси, чтобы зайти на рутор, достаточно воспользоваться нашим ресурсом. Все новые фильмы, игры, сериалы, книги и музыка за 2013 и 2014 годы через торрент бесплатно. Скачивайте фильмы в хорошем качестве, игры для пк, xbox, playstation без регистрации. У нас вы найдете новые Зарубежные сериалы и Русские сериалы 2013, 2014, 2015 годов. Оставайтесь с нами, качайте любимые фильмы, игры, сериалы, книги и музыку.
cron