img image001 image001 image001 image001 image001 image001 image001 image001 image001 image001 image001 image001 image001 image001 image001

Planets Sun Sun Sun
Статистика раздачи
Автор: Снежана | Размер: 1.46 ГБ | Добавлен: 24 июл 2013
Раздают: 140    Качают: 8
Скачать торрент
Скачать торрент
Описание торрента

СообщениеДобавлено: 24 июл 2013 

#77

Год выпуска: 2012
Производство: Россия / Интерфест, КВФильм-Продакшн, Юрхаус
Жанр: Драма
Продолжительность: 01:17:11
Перевод: Оригинал лицензия


Режиссер: Сергей Комаров

В ролях: Гоша Куценко, Анна Канарис, Владимир Горюшин, Игорь Кистол, Александр Сирин, Георгий Тополага

О фильме: Борис приходит в себя в тюрьме. Оказывается, что три дня назад он сбил человека. Но вспомнить аварию и обстоятельства, предшествующие ей, Борису не удается даже на допросе. Как все произошло? Кого он сбил? Головоломка начинает складываться, когда на свидание к Борису приходит жена. В разговоре с ней он узнает, что наказан за преступление, которое совершил не сейчас. А наказание это намного страшнее тюремного заключения.






Качество: BDRip-AVC [Razgovor 2012 1080p Blu-ray AVC DTS 5.1-IRONCLUB]
Формат: MKV
Видео: H.264, 1040x442 (2.35:1), 24.000 fps, 2262 Кbps, 0.205 bit/pixel
Аудио: 48 kHz, AC3 Dolby Digital, 3/2 (L,C,R,l,r) + LFE ch, 448.00 kbps


Автор рипа:


General
Unique ID : 199354507670315727996022938002975085357 (0x95FA4816175304999E364DDD839FD32D)
Complete name : Razgovor.2012.O.BDRip.x264.potroks.mkv
Format : Matroska
Format version : Version 4 / Version 2
File size : 1.46 GiB
Duration : 1h 17mn
Overall bit rate : 2 711 Kbps
Movie name : -=POTROKS=-
Encoded date : UTC 2013-05-25 18:00:36
Writing application : mkvmerge v5.9.0 ('On The Loose') built on Dec 15 2012 16:39:58
Writing library : libebml v1.3.0 + libmatroska v1.4.0

Video
ID : 1
Format : AVC
Format/Info : Advanced Video Codec
Format profile : High@L4.1
Format settings, CABAC : Yes
Format settings, ReFrames : 10 frames
Codec ID : V_MPEG4/ISO/AVC
Duration : 1h 17mn
Bit rate : 2 262 Kbps
Width : 1 040 pixels
Height : 442 pixels
Display aspect ratio : 2.35:1
Frame rate mode : Constant
Frame rate : 24.000 fps
Color space : YUV
Chroma subsampling : 4:2:0
Bit depth : 8 bits
Scan type : Progressive
Bits/(Pixel*Frame) : 0.205
Stream size : 1.19 GiB (81%)
Title : Разговор
Writing library : x264 core 125 r2208 d9d2288
Encoding settings : cabac=1 / ref=10 / deblock=1:-2:-1 / analyse=0x3:0x133 / me=umh / subme=11 / psy=1 / psy_rd=1.08:0.02 / mixed_ref=1 / me_range=32 / chroma_me=1 / trellis=2 / 8x8dct=1 / cqm=0 / deadzone=21,11 / fast_pskip=0 / chroma_qp_offset=-3 / threads=9 / lookahead_threads=1 / sliced_threads=0 / nr=0 / decimate=1 / interlaced=0 / bluray_compat=0 / constrained_intra=0 / bframes=11 / b_pyramid=2 / b_adapt=2 / b_bias=0 / direct=3 / weightb=1 / open_gop=0 / weightp=2 / keyint=240 / keyint_min=23 / scenecut=40 / intra_refresh=0 / rc_lookahead=150 / rc=2pass / mbtree=1 / bitrate=2262 / ratetol=1.0 / qcomp=0.70 / qpmin=0 / qpmax=69 / qpstep=4 / cplxblur=20.0 / qblur=0.5 / vbv_maxrate=20000 / vbv_bufsize=20000 / nal_hrd=none / ip_ratio=1.35 / aq=1:0.80
Language : Russian
Default : Yes
Forced : No

Audio
ID : 2
Format : AC-3
Format/Info : Audio Coding 3
Mode extension : CM (complete main)
Format settings, Endianness : Big
Codec ID : A_AC3
Duration : 1h 17mn
Bit rate mode : Constant
Bit rate : 448 Kbps
Channel(s) : 6 channels
Channel positions : Front: L C R, Side: L R, LFE
Sampling rate : 48.0 KHz
Bit depth : 16 bits
Compression mode : Lossy
Stream size : 247 MiB (17%)
Title : DD 5.1 @ 448 kbps
Language : Russian
Default : Yes
Forced : No




   Похожие торренты   Торрент   Размер 
В этой теме нет новых непрочитанных сообщений. Разговор (2012) BDRip от HQCLUB | Лицензия

97 | 7

1.45 ГБ

В этой теме нет новых непрочитанных сообщений. Разговор (2012) BDRip 720p | Лицензия

2 | 3

4.36 ГБ

В этой теме нет новых непрочитанных сообщений. Разговор Начистоту / Прямой разговор / Straight Talk (1992) BDRip-AVC от MediaClub | P2

13 | 2

2.08 ГБ

В этой теме нет новых непрочитанных сообщений. Разговор Начистоту / Прямой разговор / Straight Talk (1992) BDRip 720p от MediaClub | P2

12 | 2

3.28 ГБ

В этой теме нет новых непрочитанных сообщений. Разговор (2012) Blu-Ray 1080p | Лицензия

0 | 1

15.38 ГБ

В этой теме нет новых непрочитанных сообщений. Разговор (2012) DVD5 от Youtracker | лицензия

17 | 3

4.29 ГБ

В этой теме нет новых непрочитанных сообщений. Банкомат / ATM (2012) BDRip-AVC от potroks | Лицензия

7 | 2

2.18 ГБ




Вы не можете начинать темы
Вы не можете отвечать на сообщения
Вы не можете редактировать свои сообщения
Вы не можете удалять свои сообщения
Вы не можете добавлять вложения

Перейти:  
Для Мосгорсуда, Роскомнадзора и рекламодателей: mosgorsud-torrent[собачка]yandex.ru
 Вход
ppkBB3cker v.2 © 2008-2014 @ PPK
[ Time : 0.047s | 15 Queries | GZIP : Off ]

cron