img image001 image001 image001 image001 image001 image001 image001 image001 image001 image001 image001 image001 image001 image001 image001

Planets Sun Sun Sun
Статистика раздачи
Автор: Снежана | Размер: 4.36 ГБ | Добавлен: 24 июл 2013
Раздают: 93    Качают: 8
Скачать торрент
Скачать торрент
Описание торрента

СообщениеДобавлено: 24 июл 2013 


Информация о фильме
    Название: Легенда №17
    Год выхода: 2013
    Жанр: Спорт, драма, биография
    Режиссер: Николай Лебедев
    Выпущено: Россия
    Продолжительность: 02:13:53
    Перевод: Оригинал
    В ролях: Данила Козловский, Олег Меньшиков, Светлана Иванова, Владимир Меньшов, Александр Лобанов, Сергей Генкин, Роман Мадянов, Александр Яковлев, Алехандра Грепи, Борис Щербаков


Сюжет фильма
    2 сентября 1972 года. Монреаль. Хоккейная сборная СССР с разгромным счетом 7:3 победила канадских профессионалов из НХЛ в стартовом матче эпохальной Суперсерии СССР-Канада. Это была не просто игра, это была битва за свою страну, которая перевернула мировое представление о хоккее.Теперь весь мир знал его просто по номеру «17». Валерий Харламов, забивший в том матче 2 шайбы, мгновенно взлетел на вершину славы. Сбылась его мечта -упорство, спортивный талант и суровые уроки великого тренера Анатолия Тарасова сделали из «номера 17» легенду мирового хоккея.


Файл
    Качество: BDRip 720p (DVD5) (исходник Blu-ray Disc)
    Видео: 1280x536, 4028 Кбит/сек, 24,000 кадр/сек, AVC, x264, High@L4.1, 2.40:1, 0.245 Бит/[Пиксели*Кадры], 2pass
    Аудио : AC-3, 640 Кбит/сек, 6 канала(ов), 48,0 КГц - Оригинал / Русский
    Субтитры: Нет
    Чаптеры: Есть



Релиз Группа | Автор Рипа:



Format : Matroska
Format version : Version 4 / Version 2
File size : 4.36 GiB
Duration : 2h 13mn
Overall bit rate : 4 663 Kbps
Movie name : Легенда №17.(2013).BDRip.720p.(DVD5).[NoLimits-Team]
Encoded date : UTC 2013-05-26 04:59:01
Writing application : mkvmerge v6.0.0 ('Coming Up For Air') built on Jan 20 2013 09:52:00
Writing library : libebml v1.3.0 + libmatroska v1.4.0

Video
ID : 1
Format : AVC
Format/Info : Advanced Video Codec
Format profile : High@L4.1
Format settings, CABAC : Yes
Format settings, ReFrames : 12 frames
Codec ID : V_MPEG4/ISO/AVC
Duration : 2h 13mn
Bit rate : 4 028 Kbps
Width : 1 280 pixels
Height : 536 pixels
Display aspect ratio : 2.40:1
Frame rate mode : Constant
Frame rate : 24.000 fps
Color space : YUV
Chroma subsampling : 4:2:0
Bit depth : 8 bits
Scan type : Progressive
Bits/(Pixel*Frame) : 0.245
Stream size : 3.68 GiB (84%)
Title : Легенда №17.(2013).BDRip.720p.(DVD5).[NoLimits-Team]
Writing library : x264 core 133 r2334 a3ac64b
Encoding settings : cabac=1 / ref=12 / deblock=1:0:0 / analyse=0x3:0x133 / me=umh / subme=11 / psy=1 / psy_rd=1.00:0.00 / mixed_ref=1 / me_range=64 / chroma_me=1 / trellis=2 / 8x8dct=1 / cqm=0 / deadzone=21,11 / fast_pskip=0 / chroma_qp_offset=-2 / threads=9 / lookahead_threads=2 / sliced_threads=0 / nr=0 / decimate=1 / interlaced=0 / bluray_compat=0 / constrained_intra=0 / bframes=14 / b_pyramid=2 / b_adapt=2 / b_bias=0 / direct=3 / weightb=1 / open_gop=0 / weightp=2 / keyint=240 / keyint_min=24 / scenecut=40 / intra_refresh=0 / rc_lookahead=60 / rc=2pass / mbtree=1 / bitrate=4028 / ratetol=1.0 / qcomp=0.60 / qpmin=0 / qpmax=69 / qpstep=4 / cplxblur=20.0 / qblur=0.5 / ip_ratio=1.40 / aq=1:1.00
Language : Russian
Default : Yes
Forced : No

Audio
ID : 2
Format : AC-3
Format/Info : Audio Coding 3
Mode extension : CM (complete main)
Format settings, Endianness : Big
Codec ID : A_AC3
Duration : 2h 13mn
Bit rate mode : Constant
Bit rate : 640 Kbps
Channel(s) : 6 channels
Channel positions : Front: L C R, Side: L R, LFE
Sampling rate : 48.0 KHz
Bit depth : 16 bits
Compression mode : Lossy
Stream size : 613 MiB (14%)
Title : Оригинал
Language : Russian
Default : Yes
Forced : No

Menu
00:00:00.000 : :Chapter 01
00:07:01.708 : :Chapter 02
00:14:53.083 : :Chapter 03
00:22:34.208 : :Chapter 04
00:28:59.500 : :Chapter 05
00:37:15.500 : :Chapter 06
00:45:29.625 : :Chapter 07
00:57:35.291 : :Chapter 08
01:08:11.791 : :Chapter 09
01:17:34.208 : :Chapter 10
01:26:25.541 : :Chapter 11
01:34:09.208 : :Chapter 12
01:43:26.458 : :Chapter 13
01:49:54.083 : :Chapter 14
01:58:50.791 : :Chapter 15
02:07:19.291 : :Chapter 16





   Похожие торренты   Торрент   Размер 
В этой теме нет новых непрочитанных сообщений. Гостья / The Host (2013) BDRip 720p от NoLimits-Team

162 | 15

4.37 ГБ

В этой теме нет новых непрочитанных сообщений. Мёбиус / Möbius (2013) BDRip 720p от NoLimits-Team

128 | 55

4.37 ГБ

В этой теме нет новых непрочитанных сообщений. Гагарин. Первый в космосе (2013) BDRip 720p от NoLimits-Team

56 | 6

4.37 ГБ

В этой теме нет новых непрочитанных сообщений. Экзамен для двоих / Admission (2013) BDRip 720p от NoLimits-Team

133 | 17

4.37 ГБ

В этой теме нет новых непрочитанных сообщений. Буш / W. (2008) BDRip 720p от NOLIMITS-TEAM

473 | 4

2.25 ГБ

В этой теме нет новых непрочитанных сообщений. Где-то / Somewhere (2010) BDRip 720p от NOLIMITS-TEAM

6 | 4

2.22 ГБ

В этой теме нет новых непрочитанных сообщений. ПираМММида (2011) BDRip 720p от NOLIMITS-TEAM

0 | 1

2.29 ГБ




Вы не можете начинать темы
Вы не можете отвечать на сообщения
Вы не можете редактировать свои сообщения
Вы не можете удалять свои сообщения
Вы не можете добавлять вложения

Перейти:  
Для Мосгорсуда, Роскомнадзора и рекламодателей: mosgorsud-torrent[собачка]yandex.ru
 Вход
ppkBB3cker v.2 © 2008-2014 @ PPK
[ Time : 0.053s | 14 Queries | GZIP : Off ]

Торрент трекер RUTOR.IN, Не можете зайти на rutor.org? Какой новый адрес рутор? Какое зеркало рутор? Не работает rutor.org и зеркала? Тогда наш торрент специально для вас. Rutor.in неофициальное зеркало rutor. В случае если у Вас заблокирован rutor или вдруг Вы не можете на него зайти, то Вы без труда сможете скачать бесплатно и без рекламы последние новинки кино, игр, сериалов и прочего у нас, на Rutor.in. Не нужно использовать прокси, чтобы зайти на рутор, достаточно воспользоваться нашим ресурсом. Все новые фильмы, игры, сериалы, книги и музыка за 2013 и 2014 годы через торрент бесплатно. Скачивайте фильмы в хорошем качестве, игры для пк, xbox, playstation без регистрации. У нас вы найдете новые Зарубежные сериалы и Русские сериалы 2013, 2014, 2015 годов. Оставайтесь с нами, качайте любимые фильмы, игры, сериалы, книги и музыку.