img image001 image001 image001 image001 image001 image001 image001 image001 image001 image001 image001 image001 image001 image001 image001

Planets Sun Sun Sun
Статистика раздачи
Автор: Снежана | Размер: 4.36 ГБ | Добавлен: 24 июл 2013
Раздают: 1    Качают: 1
Скачать торрент
Скачать торрент
Описание торрента

СообщениеДобавлено: 24 июл 2013 

#77

Информация о фильме
Название: Исключение из правил
Оригинальное название: Исключение из правил
Год выхода: 2012
Жанр: мелодрама
Режиссер: Ирина Волкова
В ролях: Варвара Андреева, Максим Литовченко, Сергей Колтаков, Михаил Евланов, Кирилл Жандаров, Анна Каменкова, Александр Барган, Татьяна Колганова, Ирина Основина

О фильме:
Марина приходит спустя много лет на встречу с одноклассниками, которые обсуждают последние изменения в жизни друг друга. У Марины за эти годы ничего не изменилось — в разводе, живет с мамой, работает в школе. Взглянув на себя глазами одноклассников, Марина уезжает из Петербурга в Москву, чтобы радикально изменить свою жизнь…

Файл
Возраст: 18+
Качество: DVD5 (Сжатый)
Формат: DVD-Video


Видео: PAL 16:9 (1024х576@720x576) VBR, Auto Letterboxed
Аудио: Russian (Dolby AC3, 2 ch) 192 Kbps




Общее
Полное имя : L:Исключение из правил DVD5VIDEO_TSVTS_01_3.VOB
Формат : MPEG-PS
Размер файла : 1024 Мбайт
Продолжительность : 24 м.
Режим общего битрейта : Переменный
Общий поток : 5957 Кбит/сек

Видео
Идентификатор : 224 (0xE0)
Формат : MPEG Video
Версия формата : Version 2
Профиль формата : Main@Main
Параметр BVOP формата : Да
Параметр матрицы формата : Выборочная
Продолжительность : 24 м.
Вид битрейта : Переменный
Битрейт : 5646 Кбит/сек
Максимальный битрейт : 9000 Кбит/сек
Ширина : 720 пикселей
Высота : 576 пикселей
Соотношение сторон : 16:9
Частота кадров : 25,000 кадров/сек
Стандарт вещания : PAL
Цветовое пространство : YUV
Субдискретизация насыщенности : 4:2:0
Битовая глубина : 8 бит
Тип развёртки : Чересстрочная
Порядок развёртки : Верхнее поле первое
Метод сжатия : С потерями
Бит/(Пиксели*Кадры) : 0.545
Размер потока : 971 Мбайт (95%)

Аудио
Идентификатор : 189 (0xBD)-128 (0x80)
Формат : AC-3
Формат/Информация : Audio Coding 3
Расширение режима : CM (complete main)
Режим смешивания : DVD-Video
Продолжительность : 24 м.
Вид битрейта : Постоянный
Битрейт : 192 Кбит/сек
Каналы : 2 канала
Расположение каналов : Front: L R
Частота : 48,0 КГц
Битовая глубина : 16 бит
Метод сжатия : С потерями
Задержка видео : -400 мс.
Размер потока : 33,0 Мбайт (3%)

Меню



   Похожие торренты   Торрент   Размер 
В этой теме нет новых непрочитанных сообщений. Исключение из правил (2012) DVD9 R5 | лицензия

1 | 1

6.13 ГБ

В этой теме нет новых непрочитанных сообщений. Исключение из правил (2012) DVDRip от Youtracker | Лицензия

3 | 1

744.9 МБ

В этой теме нет новых непрочитанных сообщений. Каин. Исключение из правил / Caïn [S01] (2012) SATRip | P

1 | 3

5.09 ГБ

В этой теме нет новых непрочитанных сообщений. Исключение из правил (2012) HDTV 1080i от MediaClub

64 | 10

6.83 ГБ

В этой теме нет новых непрочитанных сообщений. Исключение из правил (2012) DVDRip от Youtracker | Лицензия

8 | 1

1.46 ГБ

В этой теме нет новых непрочитанных сообщений. Поединки. Исключение из правил (2012) SATRip от Odyzic и MyWorldFilm

126 | 3

1.38 ГБ

В этой теме нет новых непрочитанных сообщений. Каин. Исключение из правил / Caïn [s02] (2014) BDRip 720p от Brazzass

99 | 66

18.11 ГБ




Вы не можете начинать темы
Вы не можете отвечать на сообщения
Вы не можете редактировать свои сообщения
Вы не можете удалять свои сообщения
Вы не можете добавлять вложения

Перейти:  
Для Мосгорсуда, Роскомнадзора и рекламодателей: mosgorsud-torrent[собачка]yandex.ru
 Вход
ppkBB3cker v.2 © 2008-2014 @ PPK
[ Time : 0.532s | 14 Queries | GZIP : Off ]

Торрент трекер RUTOR.IN, Не можете зайти на rutor.org? Какой новый адрес рутор? Какое зеркало рутор? Не работает rutor.org и зеркала? Тогда наш торрент специально для вас. Rutor.in неофициальное зеркало rutor. В случае если у Вас заблокирован rutor или вдруг Вы не можете на него зайти, то Вы без труда сможете скачать бесплатно и без рекламы последние новинки кино, игр, сериалов и прочего у нас, на Rutor.in. Не нужно использовать прокси, чтобы зайти на рутор, достаточно воспользоваться нашим ресурсом. Все новые фильмы, игры, сериалы, книги и музыка за 2013 и 2014 годы через торрент бесплатно. Скачивайте фильмы в хорошем качестве, игры для пк, xbox, playstation без регистрации. У нас вы найдете новые Зарубежные сериалы и Русские сериалы 2013, 2014, 2015 годов. Оставайтесь с нами, качайте любимые фильмы, игры, сериалы, книги и музыку.