img image001 image001 image001 image001 image001 image001 image001 image001 image001 image001 image001 image001 image001 image001 image001

Planets Sun Sun Sun
Статистика раздачи
Автор: Снежана | Размер: 2.3 ГБ | Добавлен: 24 июл 2013
Раздают: 2    Качают: 1
Скачать торрент
Скачать торрент
Описание торрента

СообщениеДобавлено: 24 июл 2013 

Жанр: комедия
Год выпуска: 2011
Продолжительность: 01:14:07

Режиссёр: Григорий Константинопольский

В ролях: Екатерина Вилкова, Александр Стриженов, Кристина Бабушкина, Павел Деревянко, Юрий Колокольников, Константин Мурзенко, Светлана Бельская

Описание: «О, Боже!!!!… Невероятно!!!… Я верила — Снежный Человек существует. Он есть!!!… Он похитил меня!!! Он добрый!!!… Мы идем знакомиться с его родителями!!!… Мне кажется, я ему нравлюсь. Ваня — дай грибочков!!!» — вот так начинается необычайный видеорепортаж, записанный на камеру, которую случайно нашли в лесу охотники. Что это — сенсация??? Русский Кинг-Конг??? А может быть пронзительная история любви??? Полгода назад, где-то на Урале, в тайге, пропала тележурналистика Лариса Дебомонова. Где она — никому не известно. Давайте досмотрим до конца этот полуторачасовой сюжет. Возможно, мы узнаем, что же с ней случилось.

Закрытый показ. "Самка" (эфир 27.01.2012)

Страна: Россия
Перевод: Оригинальное

Семпл: http://multi-up.com/638559

Качество видео: DVB
Формат видео: MPEG-PS

Видео: MPEG-2 Video; 720x576@1024x576 (16:9), 25 fps, ~4100 Kbps
Аудио: MPEG Audio, 48000 Hz, stereo, 192 kbps
Общее
Полное имя : E:MPEGSamka.2011.DVB.Doc66.mpg
Формат : MPEG-PS
Размер файла : 2,30 Гбайт
Продолжительность : 1 ч. 14 м.
Режим общего битрейта : Переменный
Общий поток : 4439 Кбит/сек

Видео
Идентификатор : 224 (0xE0)
Формат : MPEG Video
Версия формата : Version 2
Профиль формата : Main@Main
Параметр BVOP формата : Да
Параметр матрицы формата : Выборочная
Продолжительность : 1 ч. 14 м.
Вид битрейта : Переменный
Битрейт : 4159 Кбит/сек
Максимальный битрейт : 15,0 Мбит/сек
Ширина : 720 пикселей
Высота : 576 пикселей
Соотношение сторон : 16:9
Частота кадров : 25,000 кадров/сек
Стандарт вещания : PAL
Цветовое пространство : YUV
Субдискретизация насыщенности : 4:2:0
Битовая глубина : 8 бит
Тип развёртки : Чересстрочная
Порядок развёртки : Верхнее поле первое
Метод сжатия : С потерями
Бит/(Пиксели*Кадры) : 0.401
Размер потока : 2,15 Гбайт (94%)

Аудио
Идентификатор : 192 (0xC0)
Формат : MPEG Audio
Версия формата : Version 1
Профиль формата : Layer 2
Продолжительность : 1 ч. 14 м.
Вид битрейта : Постоянный
Битрейт : 192 Кбит/сек
Каналы : 2 канала
Частота : 48,0 КГц
Метод сжатия : С потерями
Размер потока : 102 Мбайт (4%)




   Похожие торренты   Торрент   Размер 
В этой теме нет новых непрочитанных сообщений. Самка (2011) HDTVRip-AVC

8 | 2

1.1 ГБ

В этой теме нет новых непрочитанных сообщений. Самка (2011) DVDRip

5 | 2

689.05 МБ

В этой теме нет новых непрочитанных сообщений. Самка (2011) DVDRip Лицензия

15 | 6

1.36 ГБ

В этой теме нет новых непрочитанных сообщений. Александр Никонов - Анна Каренина, самка (2013) MP3

36 | 7

491.91 МБ

В этой теме нет новых непрочитанных сообщений. Испуганная женщина / Самка / Femina ridens (1969) DVDRip | L1

293 | 29

1.14 ГБ

В этой теме нет новых непрочитанных сообщений. Радио Маяк - Ранеты [14.01.2011 - 10.06.2011] [17.10.2011 - 27.01.2012] (2011) MP3

0 | 24

18.68 ГБ

В этой теме нет новых непрочитанных сообщений. Гонка Чемпионов 2011 Кубок наций+Личный зачёт / Race of Champions 2011 (2011) SATRip

0 | 2

3.86 ГБ




Вы не можете начинать темы
Вы не можете отвечать на сообщения
Вы не можете редактировать свои сообщения
Вы не можете удалять свои сообщения
Вы не можете добавлять вложения

Перейти:  
Для Мосгорсуда, Роскомнадзора и рекламодателей: mosgorsud-torrent[собачка]yandex.ru
 Вход
ppkBB3cker v.2 © 2008-2014 @ PPK
[ Time : 0.051s | 14 Queries | GZIP : On ]

Торрент трекер RUTOR.IN, Не можете зайти на rutor.org? Какой новый адрес рутор? Какое зеркало рутор? Не работает rutor.org и зеркала? Тогда наш торрент специально для вас. Rutor.in неофициальное зеркало rutor. В случае если у Вас заблокирован rutor или вдруг Вы не можете на него зайти, то Вы без труда сможете скачать бесплатно и без рекламы последние новинки кино, игр, сериалов и прочего у нас, на Rutor.in. Не нужно использовать прокси, чтобы зайти на рутор, достаточно воспользоваться нашим ресурсом. Все новые фильмы, игры, сериалы, книги и музыка за 2013 и 2014 годы через торрент бесплатно. Скачивайте фильмы в хорошем качестве, игры для пк, xbox, playstation без регистрации. У нас вы найдете новые Зарубежные сериалы и Русские сериалы 2013, 2014, 2015 годов. Оставайтесь с нами, качайте любимые фильмы, игры, сериалы, книги и музыку.