img image001 image001 image001 image001 image001 image001 image001 image001 image001 image001 image001 image001 image001 image001 image001

Planets Sun Sun Sun
Статистика раздачи
Автор: Снежана | Размер: 2.42 ГБ | Добавлен: 24 июл 2013
Раздают: 5    Качают: 5
Скачать торрент
Скачать торрент
Описание торрента

СообщениеДобавлено: 24 июл 2013 

#77
Жанр: боевик, комедия, приключения
Год выпуска: 2007
Продолжительность: 01:35:08
Выпущено: Россия

Режиссёр: Игорь Вознесенский

В ролях: Владислава Завадовская, Андрей Кузнецов, Михаил Разумовский, Сергей Воробьёв, Семён Стругачёв, Дарья Юргенс, Александр Шехтель, Игорь Добряков, Семён Фурман, Алёна Стурова, Алла Данишевская, Павел Бадыров, Виталий Пичик, Денис Полонский, Александр Гаркушенко, Вячеслав Киселев, Дмитрий Ермановский, Владимир Соснин

Описание: Ее лишили счастья, его чуть не убили, а Сезончика реально искалечили. Теперь они все вместе, и кто знает, насколько изощренной и беспощадной будет их месть...



Семпл: http://multi-up.com/867948

Качество видео: DVB
Формат видео: MPEG-PS

Видео: MPEG2 Video, 720x576 (4:3), 25 fps, 3384 Kbps, 0.33 bit/pixel
Аудио: MPEG Audio, 48 kHz, 2 ch, 192 kbps
General
Complete name : C:Месть – искусство_2007_DVB.mpg
Format : MPEG-PS
File size : 2.42 GiB
Duration : 1h 35mn
Overall bit rate mode : Variable
Overall bit rate : 3 648 Kbps

Video
ID : 224 (0xE0)
Format : MPEG Video
Format version : Version 2
Format profile : Main@Main
Format settings, BVOP : Yes
Format settings, Matrix : Custom
Format settings, GOP : M=3, N=12
Duration : 1h 35mn
Bit rate mode : Variable
Bit rate : 3 384 Kbps
Maximum bit rate : 15.0 Mbps
Width : 720 pixels
Height : 576 pixels
Display aspect ratio : 4:3
Frame rate : 25.000 fps
Standard : PAL
Color space : YUV
Chroma subsampling : 4:2:0
Bit depth : 8 bits
Scan type : Interlaced
Scan order : Top Field First
Compression mode : Lossy
Bits/(Pixel*Frame) : 0.326
Time code of first frame : 00:00:00:00
Time code source : Group of pictures header
Stream size : 2.25 GiB (93%)

Audio
ID : 192 (0xC0)
Format : MPEG Audio
Format version : Version 1
Format profile : Layer 2
Duration : 1h 35mn
Bit rate mode : Constant
Bit rate : 192 Kbps
Channel(s) : 2 channels
Sampling rate : 48.0 KHz
Compression mode : Lossy
Stream size : 131 MiB (5%)





   Похожие торренты   Торрент   Размер 
В этой теме нет новых непрочитанных сообщений. Месть - искусство / Падай, ты убит! (2010) SATRip - КинозалSAT

98 | 10

700.67 МБ

В этой теме нет новых непрочитанных сообщений. Месть - искусство / Падай, ты убит! (2010) SATRip - КинозалSAT

51 | 4

1.37 ГБ

В этой теме нет новых непрочитанных сообщений. Мухин Юрий - За что убит Сталин? (2013) MP3

84 | 9

491.7 МБ

В этой теме нет новых непрочитанных сообщений. Искусство умирать / Искусство смерти / The Art of Dying (1991) DVDRip | A

9 | 5

1.45 ГБ

В этой теме нет новых непрочитанных сообщений. Сунь-Цзы – Искусство побеждать (Искусство войны) (2015) MP3

387 | 37

466.56 МБ

В этой теме нет новых непрочитанных сообщений. Искусство войны: Битва за Кан (2010) PC

10 | 10

2.08 ГБ

В этой теме нет новых непрочитанных сообщений. Искусство войны: Корея (2010) PC | от R.G Игроманы

8 | 1

1.72 ГБ




Вы не можете начинать темы
Вы не можете отвечать на сообщения
Вы не можете редактировать свои сообщения
Вы не можете удалять свои сообщения
Вы не можете добавлять вложения

Перейти:  
Для Мосгорсуда, Роскомнадзора и рекламодателей: mosgorsud-torrent[собачка]yandex.ru
 Вход
ppkBB3cker v.2 © 2008-2014 @ PPK
[ Time : 0.067s | 14 Queries | GZIP : Off ]

Торрент трекер RUTOR.IN, Не можете зайти на rutor.org? Какой новый адрес рутор? Какое зеркало рутор? Не работает rutor.org и зеркала? Тогда наш торрент специально для вас. Rutor.in неофициальное зеркало rutor. В случае если у Вас заблокирован rutor или вдруг Вы не можете на него зайти, то Вы без труда сможете скачать бесплатно и без рекламы последние новинки кино, игр, сериалов и прочего у нас, на Rutor.in. Не нужно использовать прокси, чтобы зайти на рутор, достаточно воспользоваться нашим ресурсом. Все новые фильмы, игры, сериалы, книги и музыка за 2013 и 2014 годы через торрент бесплатно. Скачивайте фильмы в хорошем качестве, игры для пк, xbox, playstation без регистрации. У нас вы найдете новые Зарубежные сериалы и Русские сериалы 2013, 2014, 2015 годов. Оставайтесь с нами, качайте любимые фильмы, игры, сериалы, книги и музыку.