img image001 image001 image001 image001 image001 image001 image001 image001 image001 image001 image001 image001 image001 image001 image001

Planets Sun Sun Sun
Статистика раздачи
Автор: Снежана | Размер: 3.32 ГБ | Добавлен: 24 июл 2013
Раздают: 32    Качают: 10
Скачать торрент
Скачать торрент
Описание торрента

СообщениеДобавлено: 24 июл 2013 

[imgright]http://i46.fastpic.ru/big/2013/0526/9d/4f019ac69679114caafbe14ecd05469d.jpg" style="float:right;" />Жанр: Детектив / боевик
Год выпуска: 2012
Продолжительность: 01:25:21

Режиссёр: Виктор Татарский

В ролях: Павел Делонг, Павел Майков, Валерий Ошомков, Денис Синявский, Игорь Ключников

Описание: Кирилл Баженов и Эдуард Антипов не виделись больше 20 лет. Когда-то они вместе воевали в Афганистане, но потом судьба развела их надолго. И вот теперь они встретились. Кирилл – преуспевающий бизнесмен, счастливый семьянин. Эдуард давно разведен, за пьянство его выгнали с работы, он живет в общежитии и перебивается случайными заработками. У бывших друзей нет ничего общего. Но ситуация складывается так, что Кирилла обвиняют в убийстве, которого он не совершал. Вместе с Эдуардом они пытаются найти выход из создавшегося положения и ищут настоящего убийцу. Оказывается, в жизни Кирилла все не так хорошо и просто, как кажется на первый взгляд. Ему придется пройти через боль, ложь и предательство. И только настоящий друг пройдет с ним все испытания до конца. Ведь друзья не бывают бывшими…

Релиз: [img]http://i8.fastpic.ru/big/2010/0717/43/1809e5866207f2ec0a1241661fb08643.gif[/imgright]Семпл

Качество видео: DVB
Формат видео: ts

Видео: MPEG2 Video 720x576 (4:3) 25.00fps 5 105 Kbps
Аудио: MPEG Audio 48000Hz 2 channels 192 Кбит/сек
Dvoe.2012.DVB.Alexey724.ts
Format : MPEG-TS
File size : 3.32 GiB
Duration : 1h 25mn
Overall bit rate : 5 575 Kbps

Video
ID : 503 (0x1F7)
Menu ID : 1 (0x1)
Format : MPEG Video
Format version : Version 2
Format profile : Main@Main
Format settings, BVOP : Yes
Format settings, Matrix : Custom
Format settings, GOP : M=1, N=17
Codec ID : 2
Duration : 1h 25mn
Bit rate mode : Variable
Bit rate : 5 105 Kbps
Maximum bit rate : 15.0 Mbps
Width : 720 pixels
Height : 576 pixels
Display aspect ratio : 4:3
Frame rate : 25.000 fps
Standard : PAL
Color space : YUV
Chroma subsampling : 4:2:0
Bit depth : 8 bits
Scan type : Interlaced
Scan order : Top Field First
Compression mode : Lossy
Bits/(Pixel*Frame) : 0.492
Stream size : 3.04 GiB (92%)

Audio
ID : 504 (0x1F8)
Menu ID : 1 (0x1)
Format : MPEG Audio
Format version : Version 1
Format profile : Layer 2
Codec ID : 3
Duration : 1h 25mn
Bit rate mode : Constant
Bit rate : 192 Kbps
Channel(s) : 2 channels
Sampling rate : 48.0 KHz
Compression mode : Lossy
Stream size : 117 MiB (3%)
Language : English






   Похожие торренты   Торрент   Размер 
В этой теме нет новых непрочитанных сообщений. Двое в пути / Двое на дороге / Two for the Road (1967) BDRip 1080p [Hi10P] от Deadmauvlad | P

7 | 6

11.64 ГБ

В этой теме нет новых непрочитанных сообщений. Двое (2010) SATRip

16 | 17

1.37 ГБ

В этой теме нет новых непрочитанных сообщений. Двое / Deux (2015) DVB | Sub

66 | 8

1.95 ГБ

В этой теме нет новых непрочитанных сообщений. Двое из нас / Two of Us (2000) DVDRip

9 | 3

1.46 ГБ

В этой теме нет новых непрочитанных сообщений. Двое (1965) DVDRip

452 | 10

300.25 МБ

В этой теме нет новых непрочитанных сообщений. Двое (2011) SATRemux

3 | 4

2.13 ГБ

В этой теме нет новых непрочитанных сообщений. Двое - Зной (1997) MP3

37 | 2

93.44 МБ




Вы не можете начинать темы
Вы не можете отвечать на сообщения
Вы не можете редактировать свои сообщения
Вы не можете удалять свои сообщения
Вы не можете добавлять вложения

Перейти:  
Для Мосгорсуда, Роскомнадзора и рекламодателей: mosgorsud-torrent[собачка]yandex.ru
 Вход
ppkBB3cker v.2 © 2008-2014 @ PPK
[ Time : 0.053s | 14 Queries | GZIP : Off ]

Торрент трекер RUTOR.IN, Не можете зайти на rutor.org? Какой новый адрес рутор? Какое зеркало рутор? Не работает rutor.org и зеркала? Тогда наш торрент специально для вас. Rutor.in неофициальное зеркало rutor. В случае если у Вас заблокирован rutor или вдруг Вы не можете на него зайти, то Вы без труда сможете скачать бесплатно и без рекламы последние новинки кино, игр, сериалов и прочего у нас, на Rutor.in. Не нужно использовать прокси, чтобы зайти на рутор, достаточно воспользоваться нашим ресурсом. Все новые фильмы, игры, сериалы, книги и музыка за 2013 и 2014 годы через торрент бесплатно. Скачивайте фильмы в хорошем качестве, игры для пк, xbox, playstation без регистрации. У нас вы найдете новые Зарубежные сериалы и Русские сериалы 2013, 2014, 2015 годов. Оставайтесь с нами, качайте любимые фильмы, игры, сериалы, книги и музыку.