img image001 image001 image001 image001 image001 image001 image001 image001 image001 image001 image001 image001 image001 image001 image001

Planets Sun Sun Sun


Начать новую тему Ответить на тему
Пред. тема | След. тема 
Автор Описание торрента

СообщениеДобавлено: 24 июл 2013 

Не в сети
Раздал: 0 байт
Скачал: 0 байт
Ратио: Inf.
Торренты: 165369
#77


Легенда №17 / Legenda No. 17
«Великая сборная, великий тренер, великий игрок»


#77

Страна: Россия
Студия: Студия Тритэ
Жанр: спорт, драма, биография
Год выпуска: 2013
Продолжительность: 2:13:53

Перевод: Профессиональный (оригинальный) [Лицензия, BD RUS]
Русские субтитры: нет
Режиссер: Николай Лебедев / Nikolay Lebedev
В ролях: Данила Козловский, Олег Меньшиков, Владимир Меньшов, Роман Мадянов, Светлана Иванова, Алехандра Грепи, Борис Щербаков, Гёц Отто, Дарья Екамасова, Александр Рагулин, Александр Харламов, Денис Сердюков, Валентин Смирнитский, Нина Усатова, Ляля Размахова, Михаил Дорожкин, Марина Майко, Ирина Лачина, Михаил Анисимов, Павел Никитин, Андрей Рунцо, Хавьер Альсина, Андрей Дюрягин, Александр Лобанов, Екатерина Щанкина, Сергей Генкин, Анна Аршава, Николай Сороканов, Светлана Мигунова-Дали


2 сентября 1972 года. Монреаль. Хоккейная сборная СССР с разгромным счетом 7:3 победила канадских профессионалов из НХЛ в стартовом матче эпохальной Суперсерии СССР-Канада. Это была не просто игра, это была битва за свою страну, которая перевернула мировое представление о хоккее.
Теперь весь мир знал его просто по номеру «17». Валерий Харламов, забивший в том матче 2 шайбы, мгновенно взлетел на вершину славы. Сбылась его мечта -упорство, спортивный талант и суровые уроки великого тренера Анатолия Тарасова сделали из «номера 17» легенду мирового хоккея.

Тип релиза: BDRip 1080p
Контейнер: MKV
Видео кодек: x264
Аудио кодек: AC3
Видео: AVC / High@L4.1 / 2 pass / 24,000 fps / 1920x804p / 12,0 Mbps / 0.324
Аудио: AC3 / 5.1 ch / 640 kbps / Русский original BD RUS
Субтитры: нет
Дополнительно: Сохранены оригинальные чаптеры как на Blu-ray
Рип от: Killbrain


Раздача от:












x264 [info]: frame I:1309 Avg QP:16.31 size:200424
x264 [info]: frame P:56406 Avg QP:18.52 size: 86931
x264 [info]: frame B:135090 Avg QP:20.89 size: 50912

Общее
Уникальный идентификатор : 184549069168349112864343205079483009045 (0x8AD6DB9C307E17C3BFB02C1BE431C815)
Полное имя : F:Скачка торрентLegenda.17.2013.BDRip1080p(Killbrain).mkv
Формат : Matroska
Версия формата : Version 4 / Version 2
Размер файла : 11,8 Гбайт
Продолжительность : 2 ч. 13 м.
Общий поток : 12,6 Мбит/сек
Название фильма : Legenda No.17 (2013) by Killbrain
Дата кодирования : UTC 2013-05-26 17:26:29
Программа кодирования : mkvmerge v6.2.0 ('Promised Land') built on Apr 28 2013 12:22:01
Библиотека кодирования : libebml v1.3.0 + libmatroska v1.4.0

Видео
Идентификатор : 1
Формат : AVC
Формат/Информация : Advanced Video Codec
Профиль формата : High@L4.1
Параметр CABAC формата : Да
Параметр ReFrames формата : 4 кадра
Идентификатор кодека : V_MPEG4/ISO/AVC
Продолжительность : 2 ч. 13 м.
Битрейт : 12,0 Мбит/сек
Ширина : 1920 пикселей
Высота : 804 пикселя
Соотношение сторон : 2,40:1
Режим частоты кадров : Постоянный
Частота кадров : 24,000 кадра/сек
Цветовое пространство : YUV
Субдискретизация насыщенности : 4:2:0
Битовая глубина : 8 бит
Тип развёртки : Прогрессивная
Бит/(Пиксели*Кадры) : 0.324
Размер потока : 11,0 Гбайт (93%)
Заголовок : Legenda No.17 (2013)
Библиотека кодирования : x264 core 132 r2310 76a5c3a
Настройки программы : cabac=1 / ref=4 / deblock=1:-2:-2 / analyse=0x3:0x113 / me=umh / subme=10 / psy=1 / psy_rd=1.00:0.15 / mixed_ref=1 / me_range=16 / chroma_me=1 / trellis=2 / 8x8dct=1 / cqm=0 / deadzone=21,11 / fast_pskip=0 / chroma_qp_offset=-3 / threads=3 / lookahead_threads=1 / sliced_threads=0 / nr=0 / decimate=0 / interlaced=0 / bluray_compat=0 / constrained_intra=0 / bframes=8 / b_pyramid=2 / b_adapt=2 / b_bias=0 / direct=3 / weightb=1 / open_gop=0 / weightp=2 / keyint=240 / keyint_min=24 / scenecut=40 / intra_refresh=0 / rc_lookahead=60 / rc=2pass / mbtree=0 / bitrate=12000 / ratetol=1.0 / qcomp=0.65 / qpmin=0 / qpmax=69 / qpstep=4 / cplxblur=20.0 / qblur=0.5 / vbv_maxrate=40000 / vbv_bufsize=30000 / nal_hrd=none / ip_ratio=1.40 / pb_ratio=1.30 / aq=1:0.80
Язык : Russian
Default : Да
Forced : Нет

Аудио
Идентификатор : 2
Формат : AC-3
Формат/Информация : Audio Coding 3
Расширение режима : CM (complete main)
Параметр Endianness формата : Big
Идентификатор кодека : A_AC3
Продолжительность : 2 ч. 13 м.
Вид битрейта : Постоянный
Битрейт : 640 Кбит/сек
Каналы : 6 каналов
Расположение каналов : Front: L C R, Side: L R, LFE
Частота : 48,0 КГц
Битовая глубина : 16 бит
Метод сжатия : С потерями
Размер потока : 613 Мбайт (5%)
Заголовок : AC3 / 5.1 ch / 640 kbps / Русский original, BD RUS
Язык : Russian
Default : Да
Forced : Нет

Меню
00:00:00.000 : :Chapter 01
00:07:01.708 : :Chapter 02
00:14:53.083 : :Chapter 03
00:22:34.208 : :Chapter 04
00:28:59.500 : :Chapter 05
00:37:15.500 : :Chapter 06
00:45:29.625 : :Chapter 07
00:57:35.291 : :Chapter 08
01:08:11.791 : :Chapter 09
01:17:34.208 : :Chapter 10
01:26:25.541 : :Chapter 11
01:34:09.208 : :Chapter 12
01:43:26.458 : :Chapter 13
01:49:54.083 : :Chapter 14
01:58:50.791 : :Chapter 15
02:07:19.291 : :Chapter 16

Исходник vs Рип












Вложения:
torrent_68086.torrent [30.18 КБ]
Скачиваний: 12
Вернуться к началу
    Профиль Отправить личное сообщение
Страница 1 из 1
Показать сообщения за:  Cортировать  
Начать новую тему Ответить на тему
   Похожие темы   Ответы   Просмотры 
В этой теме нет новых непрочитанных сообщений. Вложения Легенда №17 (2013) BDRemux 1080p от Youtracker | лицензия

48

В этой теме нет новых непрочитанных сообщений. Вложения Легенда №17 (2013) BDRip от Youtracker | Лицензия

136

В этой теме нет новых непрочитанных сообщений. Вложения Легенда №17 (2013) BDRip-AVC от Youtracker | Лицензия

113

В этой теме нет новых непрочитанных сообщений. Вложения Легенда №17 (2013) BDRip от Youtracker | лицензия

268

В этой теме нет новых непрочитанных сообщений. Вложения Легенда №17 (2013) BDRip от Youtracker | лицензия

59

В этой теме нет новых непрочитанных сообщений. Вложения Легенда №17 (2013) DVD9 R5 от Youtracker | лицензия

16

В этой теме нет новых непрочитанных сообщений. Вложения Легенда №17 (2013) BDRip 1080p | Лицензия

422



Сейчас этот форум просматривают: нет зарегистрированных пользователей и гости: 68


Вы не можете начинать темы
Вы не можете отвечать на сообщения
Вы не можете редактировать свои сообщения
Вы не можете удалять свои сообщения
Вы не можете добавлять вложения

Перейти:  
Для Мосгорсуда, Роскомнадзора и рекламодателей: mosgorsud-torrent[собачка]yandex.ru
 Вход
ppkBB3cker v.2 © 2008-2014 @ PPK
[ Time : 0.038s | 15 Queries | GZIP : Off ]

Торрент трекер RUTOR.IN, Не можете зайти на rutor.org? Какой новый адрес рутор? Какое зеркало рутор? Не работает rutor.org и зеркала? Тогда наш торрент специально для вас. Rutor.in неофициальное зеркало rutor. В случае если у Вас заблокирован rutor или вдруг Вы не можете на него зайти, то Вы без труда сможете скачать бесплатно и без рекламы последние новинки кино, игр, сериалов и прочего у нас, на Rutor.in. Не нужно использовать прокси, чтобы зайти на рутор, достаточно воспользоваться нашим ресурсом. Все новые фильмы, игры, сериалы, книги и музыка за 2013 и 2014 годы через торрент бесплатно. Скачивайте фильмы в хорошем качестве, игры для пк, xbox, playstation без регистрации. У нас вы найдете новые Зарубежные сериалы и Русские сериалы 2013, 2014, 2015 годов. Оставайтесь с нами, качайте любимые фильмы, игры, сериалы, книги и музыку.