img image001 image001 image001 image001 image001 image001 image001 image001 image001 image001 image001 image001 image001 image001 image001

Planets Sun Sun Sun
Статистика раздачи
Автор: Снежана | Размер: 1.64 ГБ | Добавлен: 24 июл 2013
Раздают: 2    Качают: 2
Скачать торрент
Скачать торрент
Описание торрента

СообщениеДобавлено: 24 июл 2013 

#77

Год выпуска: 1985
Страна: СССР
Жанр: Драма, мелодрама, комедияслова
Продолжительность: 01:28:13
Перевод: Не требуется

Режиссер: Игорь Масленников
Сценарий: Владимир Валуцкий
Композитор: Владимир Дашкевич
Студия: Ленфильм, Студия Троицкий мост

Релиз на DVD: 26 февраля 2009, «Мистерия Звука»
Релиз на Blu-Ray: 28 мая 2013, «Lizard Cinema Trade»
Премьера в мире: 21 октября 1985

В ролях: Елена Сафонова - Ольга, Нина Русланова - Лариса, подруга Ольги, Лариса Удовиченко - Валя, подруга Ольги, Виталий Соломин - Вадим Дашков, Александр Леньков - Вениамин, Ивар Калныньш - Герберт, Сергей Паршин - Саша-спортсмен, Алла Осипенко - мать бывшего мужа Ольги, В. Беляев - шофёр автобуса, Валерий Караваев - сослуживец Ольги, Михаил Подущак - Антошка, сын Ольги, Евгений Меркурьев - Сережка, Сергей Рогожин - брат Ольги, Светлана Крючкова - жена Вадима, Ирина Мирошниченко - жена Дашкова

Описание:
Молодая интеллигентная женщина одна воспитывает маленького сына. Она любит и любима, но избранник женат и не решается оставить семью. Неожиданно в ее жизнь входит новый знакомый: красивый, внимательный, респектабельный. Но сердцу не прикажешь...

[*]На роль Вадима Дашкова пробовался Сергей Шакуров.На роль Ольги пробовалась Наталья Андрейченко.

Качество: BDRip-AVC
Контейнер: MKV
Видео кодек: H.264
Аудио кодек: AC3
Видео: H.264, 1766 Kbps, 794x576 pix., 23.976 fps, High@L4.1
Аудио#1: AC3, 48.0 KHz, 448 Kbps, 6 channels, 16 bits |RUS|
Аудио#2: AC3, 48.0 KHz, 448 Kbps, 1 channel, 16 bits |RUS|
Навигация по главам: Есть

General
Unique ID : 235375906026440774070417715871915955708 (0xB113C024B947285F8B17FCB6F7AFD5FC)
Complete name : G:TORRENTBDRip-AVCЗимняя вишня (1985).mkv
Format : Matroska
Format version : Version 2
File size : 1.64 GiB
Duration : 1h 28mn
Overall bit rate : 2 664 Kbps
Encoded date : UTC 2013-05-26 17:48:47
Writing application : mkvmerge v6.1.0 ('Old Devil') built on Mar 2 2013 14:32:37
Writing library : libebml v1.3.0 + libmatroska v1.4.0

Video
ID : 1
Format : AVC
Format/Info : Advanced Video Codec
Format profile : High@L4.1
Format settings, CABAC : Yes
Format settings, ReFrames : 10 frames
Codec ID : V_MPEG4/ISO/AVC
Duration : 1h 28mn
Bit rate : 1 766 Kbps
Width : 794 pixels
Height : 576 pixels
Display aspect ratio : 1.378
Frame rate mode : Constant
Frame rate : 23.976 fps
Color space : YUV
Chroma subsampling : 4:2:0
Bit depth : 8 bits
Scan type : Progressive
Bits/(Pixel*Frame) : 0.161
Stream size : 1.06 GiB (64%)
Title : FREEISLAND
Writing library : x264 core 129 r2245+704+35 dbbd7a1 tMod [8-bit@4:2:0 X86_64]
Encoding settings : cabac=1 / ref=10 / deblock=1:-2:-2 / analyse=0x3:0x133 / me=tesa / subme=11 / psy=1 / fade_compensate=0.00 / psy_rd=1.00:0.15 / mixed_ref=1 / me_range=64 / chroma_me=1 / trellis=2 / 8x8dct=1 / cqm=0 / deadzone=21,11 / fast_pskip=1 / chroma_qp_offset=-3 / threads=4 / lookahead_threads=1 / sliced_threads=0 / nr=0 / decimate=1 / interlaced=0 / bluray_compat=0 / constrained_intra=0 / fgo=0 / bframes=10 / b_pyramid=2 / b_adapt=2 / b_bias=0 / direct=2 / weightb=1 / open_gop=0 / weightp=1 / keyint=240 / keyint_min=25 / scenecut=40 / intra_refresh=0 / rc_lookahead=50 / rc=2pass / mbtree=1 / bitrate=1766 / ratetol=1.0 / qcomp=0.60 / qpmin=0 / qpmax=69 / qpstep=4 / cplxblur=20.0 / qblur=0.5 / vbv_maxrate=40000 / vbv_bufsize=40000 / nal_hrd=none / ip_ratio=1.40 / aq=1:1.00
Language : Russian
Default : Yes
Forced : No

Audio #1
ID : 2
Format : AC-3
Format/Info : Audio Coding 3
Mode extension : CM (complete main)
Format settings, Endianness : Big
Codec ID : A_AC3
Duration : 1h 28mn
Bit rate mode : Constant
Bit rate : 448 Kbps
Channel(s) : 6 channels
Channel positions : Front: L C R, Side: L R, LFE
Sampling rate : 48.0 KHz
Bit depth : 16 bits
Compression mode : Lossy
Stream size : 283 MiB (17%)
Title : 5.1
Language : Russian
Default : Yes
Forced : No

Audio #2
ID : 3
Format : AC-3
Format/Info : Audio Coding 3
Mode extension : CM (complete main)
Format settings, Endianness : Big
Codec ID : A_AC3
Duration : 1h 28mn
Bit rate mode : Constant
Bit rate : 448 Kbps
Channel(s) : 1 channel
Channel positions : Front: C
Sampling rate : 48.0 KHz
Bit depth : 16 bits
Compression mode : Lossy
Stream size : 283 MiB (17%)
Title : 1.0
Language : Russian
Default : No
Forced : No

Menu
00:00:00.000 : en:00:00:00.000
00:05:15.357 : en:00:05:15.357
00:12:15.151 : en:00:12:15.151
00:16:42.793 : en:00:16:42.793
00:23:58.646 : en:00:23:58.646
00:29:57.421 : en:00:29:57.421
00:35:40.513 : en:00:35:40.513
00:41:21.354 : en:00:41:21.354
00:50:13.469 : en:00:50:13.469
00:55:30.369 : en:00:55:30.369
01:02:13.897 : en:01:02:13.897
01:06:47.754 : en:01:06:47.754
01:14:03.939 : en:01:14:03.939
01:20:04.675 : en:01:20:04.675
01:26:49.204 : en:01:26:49.204




Релиз от:



   Похожие торренты   Торрент   Размер 
В этой теме нет новых непрочитанных сообщений. Зимняя вишня (1985) BDRip от HQCLUB

284 | 16

1.45 ГБ

В этой теме нет новых непрочитанных сообщений. Зимняя вишня (1985) BDRip от Odyzic

0 | 3

719.84 МБ

В этой теме нет новых непрочитанных сообщений. Зимняя вишня (1985) BDRip от Youtracker

6 | 5

745.15 МБ

В этой теме нет новых непрочитанных сообщений. Зимняя вишня (1985) BDRip-AVC от Youtracker

37 | 7

1.46 ГБ

В этой теме нет новых непрочитанных сообщений. Зимняя вишня (1985) BDRip 1080p от HDClub

4 | 2

9.27 ГБ

В этой теме нет новых непрочитанных сообщений. Зимняя вишня (1985) BDRip 720p от HDClub

9 | 3

4.59 ГБ

В этой теме нет новых непрочитанных сообщений. Зимняя вишня (1985) DVDRip | КПК

94 | 9

1.87 ГБ




Вы не можете начинать темы
Вы не можете отвечать на сообщения
Вы не можете редактировать свои сообщения
Вы не можете удалять свои сообщения
Вы не можете добавлять вложения

Перейти:  
Для Мосгорсуда, Роскомнадзора и рекламодателей: mosgorsud-torrent[собачка]yandex.ru
 Вход
ppkBB3cker v.2 © 2008-2014 @ PPK
[ Time : 0.166s | 15 Queries | GZIP : Off ]

Торрент трекер RUTOR.IN, Не можете зайти на rutor.org? Какой новый адрес рутор? Какое зеркало рутор? Не работает rutor.org и зеркала? Тогда наш торрент специально для вас. Rutor.in неофициальное зеркало rutor. В случае если у Вас заблокирован rutor или вдруг Вы не можете на него зайти, то Вы без труда сможете скачать бесплатно и без рекламы последние новинки кино, игр, сериалов и прочего у нас, на Rutor.in. Не нужно использовать прокси, чтобы зайти на рутор, достаточно воспользоваться нашим ресурсом. Все новые фильмы, игры, сериалы, книги и музыка за 2013 и 2014 годы через торрент бесплатно. Скачивайте фильмы в хорошем качестве, игры для пк, xbox, playstation без регистрации. У нас вы найдете новые Зарубежные сериалы и Русские сериалы 2013, 2014, 2015 годов. Оставайтесь с нами, качайте любимые фильмы, игры, сериалы, книги и музыку.
cron