img image001 image001 image001 image001 image001 image001 image001 image001 image001 image001 image001 image001 image001 image001 image001

Planets Sun Sun Sun
Статистика раздачи
Автор: Снежана | Размер: 7.94 ГБ | Добавлен: 24 июл 2013
Раздают: 11    Качают: 4
Скачать торрент
Скачать торрент
Описание торрента

СообщениеДобавлено: 24 июл 2013 

Страна: США / Россия / Германия, ATgroup
Жанр: Боевик, Триллер, Мелодрама
Год выпуска: 2011
Продолжительность: 01:23:40

Перевод: Не требуется
Cубтитры: нет
Оригинальная аудиодорожка: русский

Режиссер: Юрий Королёв

В ролях: Алексей Чадов, Игорь Жижикин, Сергей Юшкевич, Андрей Чадов, Олег Шеремет, Карина Хидэкель, Павел Деревянко

Описание: «SLOVE» — soldieroflove. Он был солдатом чести, а стал солдатом удачи. Он хотел справедливости, а стал оружием в руках коррупционеров. Он хотел любви, но любовь не может быть рядом со смертью.

«SLOVE» — оперативный позывной Алексея Ронина, младшего из трех братьев, выросших в семье военного. Руководствуясь обостренным чувством справедливости, которое воспитал в них отец, братья решили посвятить себя борьбе с преступностью. Старший Григорий погиб во время операции по ликвидации канала наркотрафика, Сергей и Алексей решили продолжить дело брата. Они стали бороться с преступностью под личиной МВД…

Тип релиза: BDRip 1080p
Контейнер: MKV

Видео:AVC MPEG4 Video (H264) 1920x864 24.00fps Bit rate: 11.5 Mbps
Аудио: DTS 48000Hz 6ch [Russian (Audio 1)]
Bit rate: 1 510 Kbps Front: L C R, Side: L R, LFE
Sampling rate: 48.0 KHz Bit depth: 24 bits
Format : Matroska
File size : 7.94 GiB
Duration : 1h 27mn
Overall bit rate : 13.0 Mbps
Encoded date : UTC 2011-04-03 06:08:16
Writing application : mkvmerge v4.6.0 ('Still Crazy After All These Years') сборка от Mar 10 2011 02:50:32
Writing library : libebml v1.2.0 + libmatroska v1.1.0

Video
ID : 1
Format : AVC
Format/Info : Advanced Video Codec
Format profile : High@L4.1
Format settings, CABAC : Yes
Format settings, ReFrames : 5 frames
Codec ID : V_MPEG4/ISO/AVC
Duration : 1h 27mn
Bit rate : 11.5 Mbps
Width : 1 920 pixels
Height : 864 pixels
Display aspect ratio : 2.222
Frame rate : 24.000 fps
Color space : YUV
Chroma subsampling : 4:2:0
Bit depth : 8 bits
Scan type : Progressive
Bits/(Pixel*Frame) : 0.290
Stream size : 6.86 GiB (86%)
Writing library : x264 core 114 r1913 5fd3dce
Encoding settings : cabac=1 / ref=5 / deblock=1:-3:-3 / analyse=0x3:0x133 / me=umh / subme=10 / psy=1 / psy_rd=1.05:0.10 / mixed_ref=1 / me_range=64 / chroma_me=1 / trellis=2 / 8x8dct=1 / cqm=0 / deadzone=21,11 / fast_pskip=1 / chroma_qp_offset=-3 / threads=9 / sliced_threads=0 / nr=0 / decimate=1 / interlaced=0 / constrained_intra=0 / bframes=9 / b_pyramid=2 / b_adapt=2 / b_bias=0 / direct=3 / weightb=1 / open_gop=0 / weightp=2 / keyint=250 / keyint_min=24 / scenecut=40 / intra_refresh=0 / rc_lookahead=60 / rc=2pass / mbtree=1 / bitrate=11530 / ratetol=1.0 / qcomp=0.70 / qpmin=0 / qpmax=51 / qpstep=4 / cplxblur=20.0 / qblur=0.5 / vbv_maxrate=50000 / vbv_bufsize=62500 / nal_hrd=none / ip_ratio=1.40 / aq=1:0.80

Audio
ID : 2
Format : DTS
Format/Info : Digital Theater Systems
Codec ID : A_DTS
Duration : 1h 27mn
Bit rate mode : Constant
Bit rate : 1 510 Kbps
Channel(s) : 6 channels
Channel positions : Front: L C R, Side: L R, LFE
Sampling rate : 48.0 KHz
Bit depth : 24 bits
Compression mode : Lossy
Stream size : 941 MiB (12%)
Language : Russian




   Похожие торренты   Торрент   Размер 
В этой теме нет новых непрочитанных сообщений. Slove. Прямо в сердце (2011) BDRip 1080p от NOLIMITS-TEAM

0 | 5

4.4 ГБ

В этой теме нет новых непрочитанных сообщений. Slove. Прямо в сердце (2011) Blu-Ray 1080p

2 | 2

20.94 ГБ

В этой теме нет новых непрочитанных сообщений. Slove. Прямо в сердце (2011) BDRip от alldown | КПК

6 | 3

387.91 МБ

В этой теме нет новых непрочитанных сообщений. Slove. Прямо в сердце (2011) BDRip от HQCLUB

127 | 3

1.45 ГБ

В этой теме нет новых непрочитанных сообщений. Slove. Прямо в сердце (2011) BDRip-AVC от Тorrent-Хzona

141 | 6

1.34 ГБ

В этой теме нет новых непрочитанных сообщений. Slove. Прямо в сердце (2011) BDRip 720p от NOLIMITS-TEAM

8 | 4

2.2 ГБ

В этой теме нет новых непрочитанных сообщений. Slove. Прямо в сердце (2011) DVDRip

11 | 4

701.45 МБ




Вы не можете начинать темы
Вы не можете отвечать на сообщения
Вы не можете редактировать свои сообщения
Вы не можете удалять свои сообщения
Вы не можете добавлять вложения

Перейти:  
Для Мосгорсуда, Роскомнадзора и рекламодателей: mosgorsud-torrent[собачка]yandex.ru
 Вход
ppkBB3cker v.2 © 2008-2014 @ PPK
[ Time : 0.065s | 16 Queries | GZIP : Off ]

Торрент трекер RUTOR.IN, Не можете зайти на rutor.org? Какой новый адрес рутор? Какое зеркало рутор? Не работает rutor.org и зеркала? Тогда наш торрент специально для вас. Rutor.in неофициальное зеркало rutor. В случае если у Вас заблокирован rutor или вдруг Вы не можете на него зайти, то Вы без труда сможете скачать бесплатно и без рекламы последние новинки кино, игр, сериалов и прочего у нас, на Rutor.in. Не нужно использовать прокси, чтобы зайти на рутор, достаточно воспользоваться нашим ресурсом. Все новые фильмы, игры, сериалы, книги и музыка за 2013 и 2014 годы через торрент бесплатно. Скачивайте фильмы в хорошем качестве, игры для пк, xbox, playstation без регистрации. У нас вы найдете новые Зарубежные сериалы и Русские сериалы 2013, 2014, 2015 годов. Оставайтесь с нами, качайте любимые фильмы, игры, сериалы, книги и музыку.
cron