img image001 image001 image001 image001 image001 image001 image001 image001 image001 image001 image001 image001 image001 image001 image001

Planets Sun Sun Sun
Статистика раздачи
Автор: Снежана | Размер: 2.94 ГБ | Добавлен: 24 июл 2013
Раздают: 7    Качают: 5
Скачать торрент
Скачать торрент
Описание торрента

СообщениеДобавлено: 24 июл 2013 

Год выпуска: 2010
Жанр: мелодрама, драма
Продолжительность: 01:34:29

Режиссер: Сергей Соловьев

В ролях: Соня Карпунина, Константин Крюков, Аристарх Венес, Даниэль Ольбрыхский, Алена Бондарчук, Елена Дробышева, Андрей Руденский, Андрей Межулис, Элеонора Трубецкая, Михаил Ефремов

Описание: Еще не так давно они были "одноклассниками" - Она и двое друзей: Федор-Батон и Степан-Бульди. Ее и Федора все считали самой красивой парой в школе. Через три года после выпускного они продолжают оставаться идеальной парой в глазах всех знакомых и родителей. Она понимает, что их чувства уже притупились, но признаться в этом друг другу не хватает мужества. А ещё выясняется, что весельчак Степан давно и безответно влюблен в девушку...

Качество: DVB
Формат: MPEG-PS
Видео кодек: MPEG2
Аудио кодек: MP2
Видео: MPEG2 Video 720x576 (16:9) 25.00fps 4 173 Kbps 0.403
Аудио: MPEG Audio 48000Hz stereo 192kbps

Общее
Полное имя : D:Одноклассники_bySat.mpg
Формат : MPEG-PS
Размер файла : 2,94 Гбайт
Продолжительность : 1 ч. 34 м.
Общий поток : 4454 Кбит/сек

Видео
Идентификатор : 224 (0xE0)
Формат : MPEG Video
Версия формата : Version 2
Профиль формата : Main@Main
Параметр BVOP формата : Да
Параметр матрицы формата : Выборочная
Продолжительность : 1 ч. 34 м.
Вид битрейта : Переменный
Битрейт : 4173 Кбит/сек
Максимальный битрейт : 15,0 Мбит/сек
Ширина : 720 пикселей
Высота : 576 пикселей
Соотношение сторон : 16:9
Частота кадров : 25,000 кадров/сек
Стандарт вещания : PAL
Цветовое пространство : YUV
Субдискретизация насыщенности : 4:2:0
Битовая глубина : 8 бит
Тип развёртки : Чересстрочная
Порядок развёртки : Верхнее поле первое
Метод сжатия : С потерями
Бит/(Пиксели*Кадры) : 0.403
Размер потока : 2,75 Гбайт (94%)

Аудио
Идентификатор : 192 (0xC0)
Формат : MPEG Audio
Версия формата : Version 1
Профиль формата : Layer 2
Продолжительность : 1 ч. 34 м.
Вид битрейта : Постоянный
Битрейт : 192 Кбит/сек
Каналы : 2 канала
Частота : 48,0 КГц
Метод сжатия : С потерями
Размер потока : 130 Мбайт (4%)





   Похожие торренты   Торрент   Размер 
В этой теме нет новых непрочитанных сообщений. Одноклассники (2010) CAMRip

1 | 3

697.58 МБ

В этой теме нет новых непрочитанных сообщений. Одноклассники (2010) IPTVRip от KinoZalSat

55 | 6

1.37 ГБ

В этой теме нет новых непрочитанных сообщений. Секреты Одноклассники.ру. Видеокурс (2010) PC

68 | 6

146.94 МБ

В этой теме нет новых непрочитанных сообщений. Одноклассники / Grown Ups (2010) HDRip

56 | 10

1.36 ГБ

В этой теме нет новых непрочитанных сообщений. Одноклассники (2010) SATRip от КинозалSAT

5 | 3

700.03 МБ

В этой теме нет новых непрочитанных сообщений. Одноклассники / Grown Ups (2010) DVDRip-AVC

22 | 3

1.46 ГБ

В этой теме нет новых непрочитанных сообщений. Одноклассники / Grown Ups (2010) DVDRip

174 | 8

700.39 МБ




Вы не можете начинать темы
Вы не можете отвечать на сообщения
Вы не можете редактировать свои сообщения
Вы не можете удалять свои сообщения
Вы не можете добавлять вложения

Перейти:  
Для Мосгорсуда, Роскомнадзора и рекламодателей: mosgorsud-torrent[собачка]yandex.ru
 Вход
ppkBB3cker v.2 © 2008-2014 @ PPK
[ Time : 0.043s | 15 Queries | GZIP : Off ]

Торрент трекер RUTOR.IN, Не можете зайти на rutor.org? Какой новый адрес рутор? Какое зеркало рутор? Не работает rutor.org и зеркала? Тогда наш торрент специально для вас. Rutor.in неофициальное зеркало rutor. В случае если у Вас заблокирован rutor или вдруг Вы не можете на него зайти, то Вы без труда сможете скачать бесплатно и без рекламы последние новинки кино, игр, сериалов и прочего у нас, на Rutor.in. Не нужно использовать прокси, чтобы зайти на рутор, достаточно воспользоваться нашим ресурсом. Все новые фильмы, игры, сериалы, книги и музыка за 2013 и 2014 годы через торрент бесплатно. Скачивайте фильмы в хорошем качестве, игры для пк, xbox, playstation без регистрации. У нас вы найдете новые Зарубежные сериалы и Русские сериалы 2013, 2014, 2015 годов. Оставайтесь с нами, качайте любимые фильмы, игры, сериалы, книги и музыку.
cron