img image001 image001 image001 image001 image001 image001 image001 image001 image001 image001 image001 image001 image001 image001 image001

Planets Sun Sun Sun
Статистика раздачи
Автор: Снежана | Размер: 2.19 ГБ | Добавлен: 24 июл 2013
Раздают: 173    Качают: 14
Скачать торрент
Скачать торрент
Описание торрента

СообщениеДобавлено: 24 июл 2013 

#77
Страна: Россия
Студия: Канал Россия, Студия Тритэ
Жанр: спорт, драма, биография
Год выпуска: 2013
Продолжительность: 02:13:54

Перевод: не требуется
Оригинальная аудиодорожка: русский
Cубтитры: нет

Режиссер: Николай Лебедев

В ролях: Данила Козловский, Олег Меньшиков, Светлана Иванова, Владимир Меньшов, Александр Лобанов, Сергей Генкин, Роман Мадянов, Александр Яковлев, Алехандра Грепи, Борис Щербаков...

Описание: 2 сентября 1972 года. Монреаль. Хоккейная сборная СССР с разгромным счетом 7:3 победила канадских профессионалов из НХЛ в стартовом матче эпохальной Суперсерии СССР-Канада. Это была не просто игра, это была битва за свою страну, которая перевернула мировое представление о хоккее.
Теперь весь мир знал его просто по номеру «17». Валерий Харламов, забивший в том матче 2 шайбы, мгновенно взлетел на вершину славы. Сбылась его мечта - упорство, спортивный талант и суровые уроки великого тренера Анатолия Тарасова сделали из «номера 17» легенду мирового хоккея.






Качество: BDRip-AVC (Blu-ray 1080р)
Формат: MKV

Видео: 1024x428 (2.40:1), 24.000 fps, H264 ~ 1887 kbps avg, 0.179 bit/pixel
Аудио: 48 kHz, АС3 6 ch, 448 kbps, русский
Примечание: Сохранены главы, как на оригинальном Blu-ray диске.

Раздача от:
Общее
Полное имя : Legenda.17.2013.O.BDRip-AVC_[Youtracker]_by_avproh.mkv
Формат : Matroska
Версия формата : Version 4 / Version 2
Размер файла : 2,19 Гбайт
Продолжительность : 2 ч. 13 м.
Общий поток : 2337 Кбит/сек
Дата кодирования : UTC 2013-05-26 19:53:25
Программа кодирования : mkvmerge v6.1.0 ('Old Devil') built on Mar 2 2013 14:32:37
Библиотека кодирования : libebml v1.3.0 + libmatroska v1.4.0

Видео
Идентификатор : 1
Формат : AVC
Формат/Информация : Advanced Video Codec
Профиль формата : High@L4.1
Параметр CABAC формата : Да
Параметр ReFrames формата : 11 кадров
Идентификатор кодека : V_MPEG4/ISO/AVC
Продолжительность : 2 ч. 13 м.
Битрейт : 1887 Кбит/сек
Ширина : 1024 пикселя
Высота : 428 пикселей
Соотношение сторон : 2,40:1
Режим частоты кадров : Постоянный
Частота кадров : 24,000 кадра/сек
Цветовое пространство : YUV
Субдискретизация насыщенности : 4:2:0
Битовая глубина : 8 бит
Тип развёртки : Прогрессивная
Бит/(Пиксели*Кадры) : 0.179
Размер потока : 1,72 Гбайт (79%)
Библиотека кодирования : x264 core 130 r2273 b3065e6
Настройки программы : cabac=1 / ref=11 / deblock=1:-2:-1 / analyse=0x3:0x113 / me=umh / subme=9 / psy=1 / psy_rd=1.00:0.10 / mixed_ref=1 / me_range=32 / chroma_me=1 / trellis=2 / 8x8dct=1 / cqm=0 / deadzone=21,11 / fast_pskip=1 / chroma_qp_offset=-3 / threads=6 / lookahead_threads=1 / sliced_threads=0 / nr=0 / decimate=1 / interlaced=0 / bluray_compat=0 / constrained_intra=0 / bframes=10 / b_pyramid=2 / b_adapt=2 / b_bias=0 / direct=3 / weightb=1 / open_gop=0 / weightp=2 / keyint=240 / keyint_min=23 / scenecut=40 / intra_refresh=0 / rc_lookahead=80 / rc=2pass / mbtree=1 / bitrate=1887 / ratetol=1.0 / qcomp=0.60 / qpmin=0 / qpmax=69 / qpstep=4 / cplxblur=20.0 / qblur=0.5 / ip_ratio=1.40 / aq=2:0.90
Язык : Russian
Default : Да
Forced : Нет

Аудио
Идентификатор : 2
Формат : AC-3
Формат/Информация : Audio Coding 3
Расширение режима : CM (complete main)
Параметр Endianness формата : Big
Идентификатор кодека : A_AC3
Продолжительность : 2 ч. 13 м.
Вид битрейта : Постоянный
Битрейт : 448 Кбит/сек
Каналы : 6 каналов
Расположение каналов : Front: L C R, Side: L R, LFE
Частота : 48,0 КГц
Битовая глубина : 16 бит
Метод сжатия : С потерями
Размер потока : 429 Мбайт (19%)
Язык : Russian
Default : Да
Forced : Нет

Меню
00:00:00.000 : en:00:00:00.000
00:07:01.708 : en:00:07:01.708
00:14:53.083 : en:00:14:53.083
00:22:34.208 : en:00:22:34.208
00:28:59.500 : en:00:28:59.500
00:37:15.500 : en:00:37:15.500
00:45:29.625 : en:00:45:29.625
00:57:35.292 : en:00:57:35.292
01:08:11.792 : en:01:08:11.792
01:17:34.208 : en:01:17:34.208
01:26:25.542 : en:01:26:25.542
01:34:09.208 : en:01:34:09.208
01:43:26.458 : en:01:43:26.458
01:49:54.083 : en:01:49:54.083
01:58:50.792 : en:01:58:50.792
02:07:19.292 : en:02:07:19.292
00:10:00.000 : en:00:10:00.000





   Похожие торренты   Торрент   Размер 
В этой теме нет новых непрочитанных сообщений. Легенда №17 (2013) BDRip от Youtracker | лицензия

37 | 5

2.19 ГБ

В этой теме нет новых непрочитанных сообщений. Легенда №17 (2013) BDRip от Youtracker | Лицензия

55 | 16

840.82 МБ

В этой теме нет новых непрочитанных сообщений. Легенда №17 (2013) BDRip от Youtracker | лицензия

301 | 28

1.46 ГБ

В этой теме нет новых непрочитанных сообщений. Легенда №17 (2013) BDRip 1080p от Youtracker | Лицензия

В этой теме нет новых непрочитанных сообщений. Легенда №17 (2013) DVD9 R5 от Youtracker | лицензия

17 | 2

7.06 ГБ

В этой теме нет новых непрочитанных сообщений. Легенда №17 (2013) BDRemux 1080p от Youtracker | лицензия

22 | 12

19.01 ГБ

В этой теме нет новых непрочитанных сообщений. Легенда №17 (2013) DVD5 от Youtracker | сжатый | лицензия

141 | 2

4.37 ГБ




Вы не можете начинать темы
Вы не можете отвечать на сообщения
Вы не можете редактировать свои сообщения
Вы не можете удалять свои сообщения
Вы не можете добавлять вложения

Перейти:  
Для Мосгорсуда, Роскомнадзора и рекламодателей: mosgorsud-torrent[собачка]yandex.ru
 Вход
ppkBB3cker v.2 © 2008-2014 @ PPK
[ Time : 0.051s | 16 Queries | GZIP : Off ]

cron