img image001 image001 image001 image001 image001 image001 image001 image001 image001 image001 image001 image001 image001 image001 image001

Planets Sun Sun Sun
Статистика раздачи
Автор: Снежана | Размер: 5.51 ГБ | Добавлен: 24 июл 2013
Раздают: 21    Качают: 3
Скачать торрент
Скачать торрент
Описание торрента

СообщениеДобавлено: 24 июл 2013 

Год выпуска: 2012
Производство: StarMedia
Жанр: Мелодрама
Продолжительность: ~01:27:03 серия
Перевод: Не требуется
Субтитры: Нет

Режиссёр: Максим Мехеда
В ролях: Екатерина Климова, Игорь Петренко, Александр Мохов, Алексей Комашко, Поля Полякова, Виктор Сарайкин и др.
Куда приводят детские мечты? И стоит ли быть зависимым от иллюзий. 8-ми летняя Оксана влюбляется в сотрудника своего отца, 25-ти летнего красавца Бориса. Он, в шутку обещает подождать, пока девочка вырастет и жениться на ней. Слово Борис не сдерживает, и жениться на своей сверстнице Вике. Оксана по детски драматично переживает это. Она обещает себе, что во что бы то ни стало, завоюет Бориса. По совету бабушки, девочка лепит свою мечту из пластилина. Спустя почти 10 лет она горько пожалеет о своем желании. Чтобы распознать истинные чувства, девушке придется пережить крах семейного бизнеса, потерю самого близкого и любящего человека. Лишь избавившись от навязчивой идеи детства, Оксана обретет счастье.

Сэмпл:http://multi-up.com/812867

Качество видео: HDTV 1080i
Формат видео: MPEG-TS
Видео: H264; 1920x1080 (16:9); 25.000 fps; 8396 kbps
Аудио: MPEG Audio; 48000 Hz; 224 kbps; 2 channels
МЕЧТЫ ИЗ ПЛАСТИЛИНА_HDTV_1080i_РОССИЯ_HD_BY_}{oтт@бь)ч.ts
General
ID : 1 (0x1)
Complete name : H:МЕЧТЫ ИЗ ПЛАСТИЛИНА_HDTV_1080i_РОССИЯ_HD_BY_}{oтт@бь)ч.ts
Format : MPEG-TS
File size : 5.51 GiB
Duration : 1h 26mn
Overall bit rate mode : Variable
Overall bit rate : 9 071 Kbps

Video
ID : 1901 (0x76D)
Menu ID : 1 (0x1)
Format : AVC
Format/Info : Advanced Video Codec
Format profile : High@L4.0
Format settings, CABAC : Yes
Format settings, ReFrames : 3 frames
Format settings, GOP : M=4, N=32
Codec ID : 27
Duration : 1h 26mn
Bit rate : 8 396 Kbps
Width : 1 920 pixels
Height : 1 080 pixels
Display aspect ratio : 16:9
Frame rate : 25.000 fps
Standard : Component
Color space : YUV
Chroma subsampling : 4:2:0
Bit depth : 8 bits
Scan type : Interlaced
Scan order : Top Field First
Bits/(Pixel*Frame) : 0.162
Stream size : 5.10 GiB (93%)
Color primaries : BT.709
Transfer characteristics : BT.709
Matrix coefficients : BT.709

Audio
ID : 2901 (0xB55)
Menu ID : 1 (0x1)
Format : MPEG Audio
Format version : Version 1
Format profile : Layer 2
Codec ID : 3
Duration : 1h 26mn
Bit rate mode : Constant
Bit rate : 224 Kbps
Channel(s) : 2 channels
Sampling rate : 48.0 KHz
Compression mode : Lossy
Stream size : 139 MiB (2%)
Language : Russian

[align=center] [/align]



   Похожие торренты   Торрент   Размер 
В этой теме нет новых непрочитанных сообщений. Мечты из пластилина (2012) SATRip

41 | 6

701.92 МБ

В этой теме нет новых непрочитанных сообщений. Мечты из пластилина (2012) HDTVRip

6 | 3

747.72 МБ

В этой теме нет новых непрочитанных сообщений. Мечты из пластилина (2012) SATRip от КинозалSAT

45 | 7

1.37 ГБ

В этой теме нет новых непрочитанных сообщений. Мечты из пластилина (2012) WEB-DLRip от Generalfilm

52 | 9

1.37 ГБ

В этой теме нет новых непрочитанных сообщений. Мечты из пластилина (2012) WEB-DLRip от ivandubskoj

211 | 10

744.74 МБ

В этой теме нет новых непрочитанных сообщений. Сектор Зеро / Section zéro [01-04 из 8] (2016) HDTV 1080i HDTV 1080i от MediaClub | P

10 | 3

9.5 ГБ

В этой теме нет новых непрочитанных сообщений. Футбол. Чемпионат Германии 2012-13. 17-й тур. Байер - Гамбург (2012) HDTV 1080i

0 | 1

9.45 ГБ




Вы не можете начинать темы
Вы не можете отвечать на сообщения
Вы не можете редактировать свои сообщения
Вы не можете удалять свои сообщения
Вы не можете добавлять вложения

Перейти:  
Для Мосгорсуда, Роскомнадзора и рекламодателей: mosgorsud-torrent[собачка]yandex.ru
 Вход
ppkBB3cker v.2 © 2008-2014 @ PPK
[ Time : 0.568s | 15 Queries | GZIP : On ]

Торрент трекер RUTOR.IN, Не можете зайти на rutor.org? Какой новый адрес рутор? Какое зеркало рутор? Не работает rutor.org и зеркала? Тогда наш торрент специально для вас. Rutor.in неофициальное зеркало rutor. В случае если у Вас заблокирован rutor или вдруг Вы не можете на него зайти, то Вы без труда сможете скачать бесплатно и без рекламы последние новинки кино, игр, сериалов и прочего у нас, на Rutor.in. Не нужно использовать прокси, чтобы зайти на рутор, достаточно воспользоваться нашим ресурсом. Все новые фильмы, игры, сериалы, книги и музыка за 2013 и 2014 годы через торрент бесплатно. Скачивайте фильмы в хорошем качестве, игры для пк, xbox, playstation без регистрации. У нас вы найдете новые Зарубежные сериалы и Русские сериалы 2013, 2014, 2015 годов. Оставайтесь с нами, качайте любимые фильмы, игры, сериалы, книги и музыку.