img image001 image001 image001 image001 image001 image001 image001 image001 image001 image001 image001 image001 image001 image001 image001

Planets Sun Sun Sun
Статистика раздачи
Автор: Снежана | Размер: 5.12 ГБ | Добавлен: 24 июл 2013
Раздают: 22    Качают: 4
Скачать торрент
Скачать торрент
Описание торрента

СообщениеДобавлено: 24 июл 2013 

#77

Информация о фильме
Оригинальное название: Красотка
Год выпуска: 2013
Жанр: Мелодрама
Выпущено: Россия
Режиссер: Дмитрий Петрунь
В ролях: Анна Старшенбаум, Илья Носков, Сергей Комаров (II), Наталия Антонова, Игорь Ясулович, Роман Мадянов, Ричард Бондарев, Ангелина Лакатош, Александр Сибирцев, Сергей Серов, Ольга Хохлова, Юрий Бондаренко, Юрий Гумиров, Юлия Ковалева, Анастасия Логинова, Наталья Унгард, Елена Блинникова (II), Александр Федичкин, Михаил Инчин, Василий Бочкарёв, Леонид Трегуб, Алексей Белоус, Николай Аверюшкин, Владимир Кебин, Кирилл Мелехов, Станислав Герасимов

О фильме: Кирилл, молодой успешный предприниматель, приглашен на важный деловой ужин, открывающий новые перспективы для его бизнеса. Однако есть одно непременное условие – он должен привести свою невесту, с которой до сих пор никого не познакомил. Как назло, за день до ужина влюбленные ссорятся.. К счастью, благосклонная судьба подкидывает выход из положения: Кирилл случайно знакомится с красивой и острой на язык Лизой, которую вполне можно выдать за невесту. Если бы герой знал, с кем связывается, он бы поостерегся впускать незнакомку в свою жизнь..

Cэмпл:http://multi-up.com/869724

Файл
Качество: HDTV 1080i
Формат: MPEG-TS
Видео кодек: H.264
Аудио кодек: MP2
Видео: MPEG4 Video (H264) 1920x1080, 25fps, 7539 Кбит/сек
Аудио: MP2 48000Hz 2ch 192 Кбит/сек

Общее
Идентификатор : 1 (0x1)
Полное имя : Z:Krasotka.(2013)bySat.ts
Формат : MPEG-TS
Размер файла : 5,12 Гбайт
Продолжительность : 1 ч. 30 м.
Режим общего битрейта : Переменный
Общий поток : 8135 Кбит/сек

Видео
Идентификатор : 306 (0x132)
Идентификатор меню : 1 (0x1)
Формат : AVC
Формат/Информация : Advanced Video Codec
Профиль формата : High@L4.0
Параметр CABAC формата : Да
Параметр ReFrames формата : 3 кадра
Идентификатор кодека : 27
Продолжительность : 1 ч. 30 м.
Битрейт : 7539 Кбит/сек
Ширина : 1920 пикселей
Высота : 1080 пикселей
Соотношение сторон : 16:9
Частота кадров : 25,000 кадров/сек
Стандарт вещания : Component
Цветовое пространство : YUV
Субдискретизация насыщенности : 4:2:0
Битовая глубина : 8 бит
Тип развёртки : Чересстрочная
Порядок развёртки : Верхнее поле первое
Бит/(Пиксели*Кадры) : 0.145
Размер потока : 4,74 Гбайт (93%)
Основные цвета : BT.709
Характеристики трансфера : BT.709
Коэффициенты матрицы : BT.709

Аудио
Идентификатор : 406 (0x196)
Идентификатор меню : 1 (0x1)
Формат : MPEG Audio
Версия формата : Version 1
Профиль формата : Layer 2
Идентификатор кодека : 3
Продолжительность : 1 ч. 30 м.
Вид битрейта : Постоянный
Битрейт : 192 Кбит/сек
Каналы : 2 канала
Частота : 48,0 КГц
Метод сжатия : С потерями
Размер потока : 124 Мбайт (2%)
Язык : English





   Похожие торренты   Торрент   Размер 
В этой теме нет новых непрочитанных сообщений. Смертельная красотка / Роковая красотка / Fatal Beauty (1987) DVDRip | A

38 | 3

1.46 ГБ

В этой теме нет новых непрочитанных сообщений. Красотка (2013) SATRip

38 | 3

1.36 ГБ

В этой теме нет новых непрочитанных сообщений. Красотка (2013) HDTVRip 720p

65 | 6

2.69 ГБ

В этой теме нет новых непрочитанных сообщений. Красотка (2013) HDTVRip от Files-x

374 | 15

1.37 ГБ

В этой теме нет новых непрочитанных сообщений. Сектор Зеро / Section zéro [01-04 из 8] (2016) HDTV 1080i HDTV 1080i от MediaClub | P

10 | 3

9.5 ГБ

В этой теме нет новых непрочитанных сообщений. Велоспорт. Арктическая гонка Норвегии 2013 / Arctic Race of Norway 2013 (2013) HDTV 1080i

0 | 3

8.64 ГБ

В этой теме нет новых непрочитанных сообщений. Новая волна-2013. Первый конкурсный день. Мировой хит (эфир от 2013.07.24) (2013) HDTV 1080i от MediaClub

3 | 2

8.65 ГБ




Вы не можете начинать темы
Вы не можете отвечать на сообщения
Вы не можете редактировать свои сообщения
Вы не можете удалять свои сообщения
Вы не можете добавлять вложения

Перейти:  
Для Мосгорсуда, Роскомнадзора и рекламодателей: mosgorsud-torrent[собачка]yandex.ru
 Вход
ppkBB3cker v.2 © 2008-2014 @ PPK
[ Time : 0.051s | 15 Queries | GZIP : Off ]

Торрент трекер RUTOR.IN, Не можете зайти на rutor.org? Какой новый адрес рутор? Какое зеркало рутор? Не работает rutor.org и зеркала? Тогда наш торрент специально для вас. Rutor.in неофициальное зеркало rutor. В случае если у Вас заблокирован rutor или вдруг Вы не можете на него зайти, то Вы без труда сможете скачать бесплатно и без рекламы последние новинки кино, игр, сериалов и прочего у нас, на Rutor.in. Не нужно использовать прокси, чтобы зайти на рутор, достаточно воспользоваться нашим ресурсом. Все новые фильмы, игры, сериалы, книги и музыка за 2013 и 2014 годы через торрент бесплатно. Скачивайте фильмы в хорошем качестве, игры для пк, xbox, playstation без регистрации. У нас вы найдете новые Зарубежные сериалы и Русские сериалы 2013, 2014, 2015 годов. Оставайтесь с нами, качайте любимые фильмы, игры, сериалы, книги и музыку.