img image001 image001 image001 image001 image001 image001 image001 image001 image001 image001 image001 image001 image001 image001 image001

Planets Sun Sun Sun
Статистика раздачи
Автор: Снежана | Размер: 2.51 ГБ | Добавлен: 24 июл 2013
Раздают: 0    Качают: 2
Скачать торрент
Скачать торрент
Описание торрента

СообщениеДобавлено: 24 июл 2013 

Жанр: лирическая комедия, мелодрама
Год выпуска: 2010
Продолжительность: 01:41:00

Режиссёр: Виталий Павлов

В ролях: Инга Оболдина, Александр Лазарев младший, Анастасия Немоляева, Иван Агапов, Александр Алексеев, Андрей Афанасьев, Ольга Богданова, Юрий Горин, Миша Дитковский, Анастасия Дитковская, Лариса Кузнецова, Никита Логинов, Нина Маслова, Андрей Перунов, Василий Савинов, Мария Серегина, Виктор Соболь, Эстас Тоннэ, Антон Фигуровский, Сергей Шайдаков

Описание: Интеллигентная женщина, проснувшись утром, находит у себя в постели мужчину. Кто он, откуда и зачем? Этого она совершенно не помнит, как и не помнит, чем закончилась бурная вечеринка накануне, - и потому вынуждена предполагать «самое страшное»...

Доп. информация:
Сценарий: Виталий Павлов
Оператор-постановщик: Николай Немоляев
Художник-постановщик: Николай Терехов
Звукорежиссер: Олег Урусов
Композитор: Джимми Вилгус
Гитара: Эстас Тоннэ
Вокал: Юрий Николаев (группа "Wicked Monkey")

Семпл: http://yadi.sk/d/ZgwciPuq2N7xy

Качество видео: DVB
Формат видео: MPEG-PS

Видео: MPEG2 Video, PAL 720x576@768х576 (4:3, Letterbox, анаморф), 25 fps, 3349 kbps
Аудио: AC3, 48 kHz, 2 ch, 128 kbps
Полное имя : Русская Рулетка Женский вариант.mpg
Формат : MPEG-PS
Размер файла : 2,51 Гбайт
Продолжительность : 1 ч. 41 м.
Режим общего битрейта : Переменный
Общий поток : 3548 Кбит/сек

Видео
Идентификатор : 224 (0xE0)
Формат : MPEG Video
Версия формата : Version 2
Профиль формата : Main@Main
Параметр BVOP формата : Нет
Параметр матрицы формата : По умолчанию
Параметр GOP формата : N=15
Продолжительность : 1 ч. 41 м.
Вид битрейта : Переменный
Битрейт : 3349 Кбит/сек
Максимальный битрейт : 9800 Кбит/сек
Ширина : 720 пикселей
Высота : 576 пикселей
Соотношение сторон : 4:3
Частота кадров : 25,000 кадров/сек
Стандарт вещания : PAL
Цветовое пространство : YUV
Субдискретизация насыщенности : 4:2:0
Битовая глубина : 8 бит
Тип развёртки : Прогрессивная
Метод сжатия : С потерями
Бит/(Пиксели*Кадры) : 0.323
Размер потока : 2,37 Гбайт (94%)

Аудио
Идентификатор : 189 (0xBD)-128 (0x80)
Формат : AC-3
Формат/Информация : Audio Coding 3
Расширение режима : CM (complete main)
Параметр Endianness формата : Big
Режим смешивания : DVD-Video
Продолжительность : 1 ч. 41 м.
Вид битрейта : Постоянный
Битрейт : 128 Кбит/сек
Каналы : 2 канала
Расположение каналов : Front: L R
Частота : 48,0 КГц
Битовая глубина : 16 бит
Метод сжатия : С потерями
Размер потока : 92,8 Мбайт (4%)




   Похожие торренты   Торрент   Размер 
В этой теме нет новых непрочитанных сообщений. Русская рулетка (женский вариант) (2010) SATRip от CinemaClub

18 | 2

1.45 ГБ

В этой теме нет новых непрочитанных сообщений. Русская рулетка (женский вариант) (2010) SATRip от CinemaClub

7 | 4

700.67 МБ

В этой теме нет новых непрочитанных сообщений. Веселая ферма 3. Русская рулетка (2010) PC

562 | 24

68.27 МБ

В этой теме нет новых непрочитанных сообщений. Русская рулетка (1990) DVDRip от Киномагия

94 | 9

1.35 ГБ

В этой теме нет новых непрочитанных сообщений. Женский взгляд Оксаны Пушкиной. Андрей Чернышов [эфир от 18.06.2010] (2010) IPTVRip by dimich

0 | 2

453.68 МБ

В этой теме нет новых непрочитанных сообщений. Русская рыбалка 2: Лабынкыр (2010) (2010) PC

1317 | 55

243.19 МБ

В этой теме нет новых непрочитанных сообщений. Кавказская рулетка (2002) DVDRip

70 | 9

1.37 ГБ




Вы не можете начинать темы
Вы не можете отвечать на сообщения
Вы не можете редактировать свои сообщения
Вы не можете удалять свои сообщения
Вы не можете добавлять вложения

Перейти:  
Для Мосгорсуда, Роскомнадзора и рекламодателей: mosgorsud-torrent[собачка]yandex.ru
 Вход
ppkBB3cker v.2 © 2008-2014 @ PPK
[ Time : 0.156s | 15 Queries | GZIP : Off ]

Торрент трекер RUTOR.IN, Не можете зайти на rutor.org? Какой новый адрес рутор? Какое зеркало рутор? Не работает rutor.org и зеркала? Тогда наш торрент специально для вас. Rutor.in неофициальное зеркало rutor. В случае если у Вас заблокирован rutor или вдруг Вы не можете на него зайти, то Вы без труда сможете скачать бесплатно и без рекламы последние новинки кино, игр, сериалов и прочего у нас, на Rutor.in. Не нужно использовать прокси, чтобы зайти на рутор, достаточно воспользоваться нашим ресурсом. Все новые фильмы, игры, сериалы, книги и музыка за 2013 и 2014 годы через торрент бесплатно. Скачивайте фильмы в хорошем качестве, игры для пк, xbox, playstation без регистрации. У нас вы найдете новые Зарубежные сериалы и Русские сериалы 2013, 2014, 2015 годов. Оставайтесь с нами, качайте любимые фильмы, игры, сериалы, книги и музыку.