img image001 image001 image001 image001 image001 image001 image001 image001 image001 image001 image001 image001 image001 image001 image001

Planets Sun Sun Sun
Статистика раздачи
Автор: Снежана | Размер: 2.9 ГБ | Добавлен: 24 июл 2013
Раздают: 12    Качают: 7
Скачать торрент
Скачать торрент
Описание торрента

СообщениеДобавлено: 24 июл 2013 

Жанр: боевик, криминальный фильм
Год выпуска: 2012
Продолжительность: 1:27:14
Субтитры: Украинские вшитые

Режиссёр: Игорь Копылов
В ролях: Прохор Дубравин, Татьяна Колганова, Алексей Фокин, Сергей Кошонин, Андрей Кузнецов, Наталья Бурмистрова, Андрей Тутов, Сергей Мосьпан, Антон Багмет, Сергей Кудрявцев, Станислав Концевич
Описание: Он как невидимка, его никто не видел в лицо, а те, кто видел – уничтожены. Несколько лет назад он исчез. Ходили слухи, что он погиб, но труп не был обнаружен. Он – один из самых профессиональных киллеров страны, известный под странной кличкой Механик.
У правоохранительных органов есть информация о готовящемся покушении, где исполнителем будет якобы Механик...
Сэмпл
Качество видео: DVB
Формат видео: MPG

Видео: MPEG2 Video, 720x576 (4:3), 25 fps, 4472 Kbps, 0.431 bit/pixel
Аудио: MPEG Audio, 48000 Hz, 1 channels, 192 Кбит/сек
Complete name : E:Механик.mpg
Format : MPEG-PS
File size : 2.90 GiB
Duration : 1h 27mn
Overall bit rate mode : Variable
Overall bit rate : 4 758 Kbps
Writing library : (c) 1998-2012 Womble Multimedia, Inc. / MPEG Video Wizard DVD 5.0.1.100 (03/2011) / Sep 7 2012

Video
ID : 224 (0xE0)
Format : MPEG Video
Format version : Version 2
Format profile : Main@Main
Format settings, BVOP : Yes
Format settings, Matrix : Custom
Format settings, GOP : M=4, N=26
Duration : 1h 27mn
Bit rate mode : Variable
Bit rate : 4 472 Kbps
Maximum bit rate : 15.0 Mbps
Width : 720 pixels
Height : 576 pixels
Display aspect ratio : 4:3
Frame rate : 25.000 fps
Standard : PAL
Color space : YUV
Chroma subsampling : 4:2:0
Bit depth : 8 bits
Scan type : Interlaced
Scan order : Top Field First
Compression mode : Lossy
Bits/(Pixel*Frame) : 0.431
Stream size : 2.72 GiB (94%)
Writing library : (c) 1998-2012 Womble Multimedia, Inc. / MPEG Video Wizard DVD 5.0.1.100 (03/2011) / Sep 7 2012

Audio
ID : 192 (0xC0)
Format : MPEG Audio
Format version : Version 1
Format profile : Layer 2
Duration : 1h 27mn
Bit rate mode : Constant
Bit rate : 192 Kbps
Channel(s) : 1 channel
Sampling rate : 48.0 KHz
Compression mode : Lossy
Stream size : 120 MiB (4%)




   Похожие торренты   Торрент   Размер 
В этой теме нет новых непрочитанных сообщений. Механик (2012) HDTVRip-AVC

127 | 10

1.45 ГБ

В этой теме нет новых непрочитанных сообщений. Механик (2012) SATRip

32 | 11

701.33 МБ

В этой теме нет новых непрочитанных сообщений. Механик (2012) HDTVRip

295 | 29

1.45 ГБ

В этой теме нет новых непрочитанных сообщений. Механик (2012) HDTVRip от ImperiaFilm

172 | 30

736.68 МБ

В этой теме нет новых непрочитанных сообщений. Механик (2012) IPTVRip от Files-x

121 | 15

1.27 ГБ

В этой теме нет новых непрочитанных сообщений. Механик / The Mechanic (2011) Blu-Ray

3 | 4

21.86 ГБ

В этой теме нет новых непрочитанных сообщений. Механик / The Mechanic (2011) Blu-Ray | USA Transfer

0 | 4

28.72 ГБ




Вы не можете начинать темы
Вы не можете отвечать на сообщения
Вы не можете редактировать свои сообщения
Вы не можете удалять свои сообщения
Вы не можете добавлять вложения

Перейти:  
Для Мосгорсуда, Роскомнадзора и рекламодателей: mosgorsud-torrent[собачка]yandex.ru
 Вход
ppkBB3cker v.2 © 2008-2014 @ PPK
[ Time : 0.036s | 14 Queries | GZIP : Off ]

Торрент трекер RUTOR.IN, Не можете зайти на rutor.org? Какой новый адрес рутор? Какое зеркало рутор? Не работает rutor.org и зеркала? Тогда наш торрент специально для вас. Rutor.in неофициальное зеркало rutor. В случае если у Вас заблокирован rutor или вдруг Вы не можете на него зайти, то Вы без труда сможете скачать бесплатно и без рекламы последние новинки кино, игр, сериалов и прочего у нас, на Rutor.in. Не нужно использовать прокси, чтобы зайти на рутор, достаточно воспользоваться нашим ресурсом. Все новые фильмы, игры, сериалы, книги и музыка за 2013 и 2014 годы через торрент бесплатно. Скачивайте фильмы в хорошем качестве, игры для пк, xbox, playstation без регистрации. У нас вы найдете новые Зарубежные сериалы и Русские сериалы 2013, 2014, 2015 годов. Оставайтесь с нами, качайте любимые фильмы, игры, сериалы, книги и музыку.