img image001 image001 image001 image001 image001 image001 image001 image001 image001 image001 image001 image001 image001 image001 image001

Planets Sun Sun Sun
Статистика раздачи
Автор: Снежана | Размер: 1.96 ГБ | Добавлен: 24 июл 2013
Раздают: 13    Качают: 2
Скачать торрент
Скачать торрент
Описание торрента

СообщениеДобавлено: 24 июл 2013 

Жанр: комедия
Год выпуска: 2012
Страна: Россия
Продолжительность: 01:22:46
Перевод: Не требуется

Режиссёр: Елена Бычкова

В ролях:
Владимир Киммельман, Тимофей Трибунцев, Евгения Дмитриева, Альберт Филозов, Евгений Дмитриев, Александра Рещикова, Ольга Аксенова, Владимир Майзингер, Полина Одинцова, ...

Описание:
Игнат стал выпивать, за что его и отчисляют из института. Он возвращается в родной уездный город, где нечем заняться, все умирают со скуки. Там есть только один неженатый мужчина — местный военком. Игнат когда-то ему насолил, и военком пообещал отправить его в армию. Сначала Игнат бегает от военкома, а потом вдруг у них завязывается дружба, военком становится парню вместо отца, которого у Игната не было… Потом Игнат решает все же пойти в армию, потому что делать ему решительно нечего, но в последний момент ему становится страшно, и он уезжает восстанавливаться в институт…

Доп. информация:
сценарий: Дмитрий Лемешев
продюсеры: Владимир Малышев, Андрей Малышев
операторы: Вадим Алисов, Артём Тарасенков
композитор: Дмитрий Селипанов

Качество видео: DVB
Формат видео: MPEG-PS

Видео: MPEG2 Video 704x576 (4:3) 25fps 3129 Кбит/сек 0.309
Аудио: MPEG Audio 48000Hz stereo 192kbps

Общее
Полное имя : C:Воин.com_bySat.mpg
Формат : MPEG-PS
Размер файла : 1,96 Гбайт
Продолжительность : 1 ч. 22 м.
Общий поток : 3389 Кбит/сек

Видео
Идентификатор : 224 (0xE0)
Формат : MPEG Video
Версия формата : Version 2
Профиль формата : Main@Main
Параметр BVOP формата : Да
Параметр матрицы формата : Выборочная
Продолжительность : 1 ч. 22 м.
Вид битрейта : Переменный
Битрейт : 3129 Кбит/сек
Максимальный битрейт : 15,0 Мбит/сек
Ширина : 704 пикселя
Высота : 576 пикселей
Соотношение сторон : 4:3
Частота кадров : 25,000 кадров/сек
Стандарт вещания : PAL
Цветовое пространство : YUV
Субдискретизация насыщенности : 4:2:0
Битовая глубина : 8 бит
Тип развёртки : Чересстрочная
Порядок развёртки : Верхнее поле первое
Метод сжатия : С потерями
Бит/(Пиксели*Кадры) : 0.309
Размер потока : 1,81 Гбайт (92%)

Аудио
Идентификатор : 192 (0xC0)
Формат : MPEG Audio
Версия формата : Version 1
Профиль формата : Layer 2
Продолжительность : 1 ч. 22 м.
Вид битрейта : Постоянный
Битрейт : 192 Кбит/сек
Каналы : 2 канала
Частота : 48,0 КГц
Метод сжатия : С потерями
Размер потока : 114 Мбайт (6%)




   Похожие торренты   Торрент   Размер 
В этой теме нет новых непрочитанных сообщений. Воин.com (2012) SATRip

40 | 7

1.37 ГБ

В этой теме нет новых непрочитанных сообщений. Би-2 - Нечётный Воин 3 (2012) MP3

0 | 2

93.35 МБ

В этой теме нет новых непрочитанных сообщений. OST - King's Bounty - Воин севера (2012) MP3

1 | 0

38.11 МБ

В этой теме нет новых непрочитанных сообщений. Воин во времени / Time Warrior (2012) WEB-DLRip

425 | 233

1.37 ГБ

В этой теме нет новых непрочитанных сообщений. Левицкий Андрей - Cерия «Технотьма». Воин пустоши (2012) MP3

15 | 11

915.48 МБ

В этой теме нет новых непрочитанных сообщений. Арджун: принц-воин / Arjun: The Warrior Prince (2012) DVD5

4 | 2

4.34 ГБ

В этой теме нет новых непрочитанных сообщений. Арджун: принц-воин / Arjun: The Warrior Prince (2012) DVDRip | L1

173 | 14

1.46 ГБ




Вы не можете начинать темы
Вы не можете отвечать на сообщения
Вы не можете редактировать свои сообщения
Вы не можете удалять свои сообщения
Вы не можете добавлять вложения

Перейти:  
Для Мосгорсуда, Роскомнадзора и рекламодателей: mosgorsud-torrent[собачка]yandex.ru
 Вход
ppkBB3cker v.2 © 2008-2014 @ PPK
[ Time : 0.199s | 15 Queries | GZIP : Off ]

cron