img image001 image001 image001 image001 image001 image001 image001 image001 image001 image001 image001 image001 image001 image001 image001

Planets Sun Sun Sun
Статистика раздачи
Автор: Снежана | Размер: 2.84 ГБ | Добавлен: 24 июл 2013
Раздают: 78    Качают: 9
Скачать торрент
Скачать торрент
Описание торрента

СообщениеДобавлено: 24 июл 2013 

Жанр: Боевик
Год выпуска: 2012
Выпущено: Триикс Медиа
Продолжительность: 01:25:25
Перевод: оригинал
Субтитры: Украинские вшитые

Режиссёр: Максим Демченко

В ролях: Максим Дрозд, Анна Лутцева, Сергей Гамов, Михаил Сидаш, Михаил Полосухин, Виктор Смирнов
Описание: Каверин, некогда служивший в ОМОНе, начинает работать на себя – он перевозит грузы и никогда не спрашивает заказчика о том, что внутри. Однажды, доставив груз, Каверин видит, что в чемодане, который он вез – связанная девочка. Люди заказчика похитили ее и Каверин, сам не зная о содержимом посылки, доставил девочку главарю банды. За девочку требуют выкуп, саму же ее хотят убить, чтобы избавиться от свидетеля. Среди бандитов – Брыль – бывший сослуживец и враг Каверина. Каверин вступает в схватку с бандитами, ему удается отбить у них девочку, и скрыться. Каверин, преследуемый бандитами, идущими по пятам, начинает поиск родителей девочки.
Сэмпл
Качество видео: DVB
Формат видео: MPEG-PS

Видео: MPEG2 Video, 720x576 (4:3), 25 fps, 4472 Kbps, 0.431 bit/pixel
Аудио: MPEG Audio, 48000 Hz, 1 channels, 192 Кбит/сек
General
Complete name : C:Крутой.mpg
Format : MPEG-PS
File size : 2.84 GiB
Duration : 1h 25mn
Overall bit rate mode : Variable
Overall bit rate : 4 759 Kbps
Writing library : (c) 1998-2012 Womble Multimedia, Inc. / MPEG Video Wizard DVD 5.0.1.100 (03/2011) / Sep 7 2012

Video
ID : 224 (0xE0)
Format : MPEG Video
Format version : Version 2
Format profile : Main@Main
Format settings, BVOP : Yes
Format settings, Matrix : Custom
Duration : 1h 25mn
Bit rate mode : Variable
Bit rate : 4 472 Kbps
Maximum bit rate : 15.0 Mbps
Width : 720 pixels
Height : 576 pixels
Display aspect ratio : 4:3
Frame rate : 25.000 fps
Standard : PAL
Color space : YUV
Chroma subsampling : 4:2:0
Bit depth : 8 bits
Scan type : Interlaced
Scan order : Top Field First
Compression mode : Lossy
Bits/(Pixel*Frame) : 0.431
Stream size : 2.67 GiB (94%)
Writing library : (c) 1998-2012 Womble Multimedia, Inc. / MPEG Video Wizard DVD 5.0.1.100 (03/2011) / Sep 7 2012

Audio
ID : 192 (0xC0)
Format : MPEG Audio
Format version : Version 1
Format profile : Layer 2
Duration : 1h 25mn
Bit rate mode : Constant
Bit rate : 192 Kbps
Channel(s) : 1 channel
Sampling rate : 48.0 KHz
Compression mode : Lossy
Stream size : 117 MiB (4%)




   Похожие торренты   Торрент   Размер 
В этой теме нет новых непрочитанных сообщений. Крутой поворот / Большая заваруха / Скандал: Крутой поворот / Scandal: The Big Turn On [01-12 из 12] (2000) DVD5 | P

232 | 240

3.91 ГБ

В этой теме нет новых непрочитанных сообщений. Крутой Сэм: Подполье 2012 / Serious Sam: Underground 2012 [1.05] (2012) | Repack от UnSlayeR

67 | 8

866.22 МБ

В этой теме нет новых непрочитанных сообщений. VA - Крутой Bass в тачку (2012) MP3

191 | 15

683.43 МБ

В этой теме нет новых непрочитанных сообщений. Крутой (2012) SATRip от КинозалSAT

49 | 7

700.02 МБ

В этой теме нет новых непрочитанных сообщений. Крутой (2012) SATRip от Files-x

338 | 25

1.28 ГБ

В этой теме нет новых непрочитанных сообщений. Крутой чувак / Bad Ass (2012) HDRip | Лицензия

10 | 1

701.22 МБ

В этой теме нет новых непрочитанных сообщений. Крутой чувак / Bad Ass (2012) BDRip-AVC от R.G. AVI | AVC | Лицензия

5 | 2

2.18 ГБ




Вы не можете начинать темы
Вы не можете отвечать на сообщения
Вы не можете редактировать свои сообщения
Вы не можете удалять свои сообщения
Вы не можете добавлять вложения

Перейти:  
Для Мосгорсуда, Роскомнадзора и рекламодателей: mosgorsud-torrent[собачка]yandex.ru
 Вход
ppkBB3cker v.2 © 2008-2014 @ PPK
[ Time : 0.021s | 15 Queries | GZIP : Off ]

Торрент трекер RUTOR.IN, Не можете зайти на rutor.org? Какой новый адрес рутор? Какое зеркало рутор? Не работает rutor.org и зеркала? Тогда наш торрент специально для вас. Rutor.in неофициальное зеркало rutor. В случае если у Вас заблокирован rutor или вдруг Вы не можете на него зайти, то Вы без труда сможете скачать бесплатно и без рекламы последние новинки кино, игр, сериалов и прочего у нас, на Rutor.in. Не нужно использовать прокси, чтобы зайти на рутор, достаточно воспользоваться нашим ресурсом. Все новые фильмы, игры, сериалы, книги и музыка за 2013 и 2014 годы через торрент бесплатно. Скачивайте фильмы в хорошем качестве, игры для пк, xbox, playstation без регистрации. У нас вы найдете новые Зарубежные сериалы и Русские сериалы 2013, 2014, 2015 годов. Оставайтесь с нами, качайте любимые фильмы, игры, сериалы, книги и музыку.