img image001 image001 image001 image001 image001 image001 image001 image001 image001 image001 image001 image001 image001 image001 image001

Planets Sun Sun Sun
Статистика раздачи
Автор: Снежана | Размер: 1.01 ГБ | Добавлен: 24 июл 2013
Раздают: 2    Качают: 6
Скачать торрент
Скачать торрент
Описание торрента

СообщениеДобавлено: 24 июл 2013 

#77
Жанр: мелодрама
Год выпуска: 2012
Продолжительность: 01:29:27
Выпущено: Россия, Star Media
Язык: Русский

Режиссёр: Дмитрий Сорокин

В ролях: Ирина Медведева, Дмитрий Богданов, Юрий Ваксман, Оксана Скакун, Ирина Пулина, Константин Третьяков

Описание: В жизни Кристины всё прекрасно: жених — красавец, богатый наследник Николай, отличная работа в одном из самых крупных банков страны. Через пару месяцев Кристине исполнится тридцать. Она ждёт этого дня особым трепетом: когда-то старая гадалка сказала ей, что если она встретит своё 30-летие успешной, то и дальше ей будет сопутствовать удача, а если нет, то ходить Кристине одинокой и бедной до конца своих дней. На память гадалка дала девушке медальон, который должен был охранять её от невзгод.
Но по роковому стечению обстоятельств, коллега Кристины, неудачник Сергей, разбивает счастливый медальон. И сказочная жизнь Кристины превращается в ад: она заваливает проект, и застает жениха с другой женщиной.
Кристине предстоит пройти через массу неприятностей, чтобы понять, что главное в жизни не мистические предсказания и волшебные амулеты, а близкие люди, которые её окружают.

Доп. информация: Запись потока со спутника EUTELSAT, ремукс в *.mpg программой VideoReDo.
В фирменном стиле "Домашнего" видео унавожено баннерами. Смотрим скрины.

Качество видео: DVB
Формат видео: MPEG-PS

Видео: MPEG2 Video, 720х576 (4:3), 25.000 fps, 1 391 Kbps
Аудио: MPEG Audio, 48.0 KHz, 192 Kbps, 2 channels
General
Complete name : D:TorrentУДАЧА НАПРОКАТУДАЧА НАПРОКАТ (Домашний).mpg
Format : MPEG-PS
File size : 1.01 GiB
Duration : 1h 29mn
Overall bit rate mode : Variable
Overall bit rate : 1 615 Kbps

Video
ID : 224 (0xE0)
Format : MPEG Video
Format version : Version 2
Format profile : Main@Main
Format settings, BVOP : Yes
Format settings, Matrix : Custom
Format settings, GOP : M=1, N=26
Duration : 1h 29mn
Bit rate mode : Variable
Bit rate : 1 391 Kbps
Maximum bit rate : 15.0 Mbps
Width : 720 pixels
Height : 576 pixels
Display aspect ratio : 4:3
Frame rate : 25.000 fps
Standard : PAL
Color space : YUV
Chroma subsampling : 4:2:0
Bit depth : 8 bits
Scan type : Interlaced
Scan order : Top Field First
Compression mode : Lossy
Bits/(Pixel*Frame) : 0.134
Stream size : 890 MiB (86%)

Audio
ID : 192 (0xC0)
Format : MPEG Audio
Format version : Version 1
Format profile : Layer 2
Duration : 1h 29mn
Bit rate mode : Constant
Bit rate : 192 Kbps
Channel(s) : 2 channels
Sampling rate : 48.0 KHz
Compression mode : Lossy
Stream size : 123 MiB (12%)




   Похожие торренты   Торрент   Размер 
В этой теме нет новых непрочитанных сообщений. Удача напрокат (2012) WEB-DLRip-AVC

24 | 4

1.45 ГБ

В этой теме нет новых непрочитанных сообщений. Удача напрокат (2012) SATRip

27 | 4

1.16 ГБ

В этой теме нет новых непрочитанных сообщений. Удача напрокат (2012) SATRip от КинозалSAT

31 | 9

702.42 МБ

В этой теме нет новых непрочитанных сообщений. Удача напрокат (2012) WEB-DLRip от Generalfilm

13 | 2

1.37 ГБ

В этой теме нет новых непрочитанных сообщений. Удача напрокат (2012) SATRip от КинозалSAT

19 | 2

1.37 ГБ

В этой теме нет новых непрочитанных сообщений. Удача напрокат (2012) HDTV 1080i от MediaClub

8 | 0

5.64 ГБ

В этой теме нет новых непрочитанных сообщений. Удача напрокат (2012) WEB-DLRip 720p от Generalfilm

6 | 4

2.7 ГБ




Вы не можете начинать темы
Вы не можете отвечать на сообщения
Вы не можете редактировать свои сообщения
Вы не можете удалять свои сообщения
Вы не можете добавлять вложения

Перейти:  
Для Мосгорсуда, Роскомнадзора и рекламодателей: mosgorsud-torrent[собачка]yandex.ru
 Вход
ppkBB3cker v.2 © 2008-2014 @ PPK
[ Time : 0.026s | 14 Queries | GZIP : Off ]
CGP output time : 0.062s | 5 Queries | GZIP : Off

Торрент трекер RUTOR.IN, Не можете зайти на rutor.org? Какой новый адрес рутор? Какое зеркало рутор? Не работает rutor.org и зеркала? Тогда наш торрент специально для вас. Rutor.in неофициальное зеркало rutor. В случае если у Вас заблокирован rutor или вдруг Вы не можете на него зайти, то Вы без труда сможете скачать бесплатно и без рекламы последние новинки кино, игр, сериалов и прочего у нас, на Rutor.in. Не нужно использовать прокси, чтобы зайти на рутор, достаточно воспользоваться нашим ресурсом. Все новые фильмы, игры, сериалы, книги и музыка за 2013 и 2014 годы через торрент бесплатно. Скачивайте фильмы в хорошем качестве, игры для пк, xbox, playstation без регистрации. У нас вы найдете новые Зарубежные сериалы и Русские сериалы 2013, 2014, 2015 годов. Оставайтесь с нами, качайте любимые фильмы, игры, сериалы, книги и музыку.