img image001 image001 image001 image001 image001 image001 image001 image001 image001 image001 image001 image001 image001 image001 image001

Planets Sun Sun Sun
Статистика раздачи
Автор: Снежана | Размер: 2.13 ГБ | Добавлен: 24 июл 2013
Раздают: 1    Качают: 2
Скачать торрент
Скачать торрент
Описание торрента

СообщениеДобавлено: 24 июл 2013 

Страна: Россия, Польша
Жанр: мелодрама
Год выпуска: 2010
Продолжительность: 01:23:31
Субтитры: русские (неотключаемые, на польскую речь)
Режиссёр: Валерий Пендраковский, Юрий Рогозин

В ролях: Александр Домогаров мл., Магдалена Лампарская, Даниэль Ольбрыхский, Вячеслав Шалевич, Михаил Васьков, Егор Харламов, Роман Ладнев

Описание: Действие картины разворачивается в 1953 году в небольшом польском городке, где находится база советских войск. Служащий в этой части солдат Шура случайно знакомится с польской девушкой Эльзой, работающей на шоколадной фабрике. Он влюбляется в нее, и девушка, кажется, отвечает на его чувства взаимностью, но постоянно откладывает свидание, повторяя: «Только не сейчас». Вскоре между возлюбленными встают барьеры: для круга, в котором вращается возлюбленная советского солдата, человек из СССР — враг и оккупант…

Доп. информация: По мотивам рассказа Владимира Войновича «Запах шоколада».



Сэмпл: http://multi-up.com/762079

Качество видео: DVB
Формат видео: MPEG-PS

Видео: MPEG-2 Video, 720x576 (4:3), VBR, 25 fps, 3384 Kbps, 0.33 bit/pixel
Аудио: Russian: 48 kHz, MPEG Audio, 2 ch, 192 kbps
General
Complete name : C:Только не сейчас_2010_DVB_by_dean10.mpg
Format : MPEG-PS
File size : 2.13 GiB
Duration : 1h 23mn
Overall bit rate mode : Variable
Overall bit rate : 3 648 Kbps

Video
ID : 224 (0xE0)
Format : MPEG Video
Format version : Version 2
Format profile : Main@Main
Format settings, BVOP : Yes
Format settings, Matrix : Custom
Duration : 1h 23mn
Bit rate mode : Variable
Bit rate : 3 384 Kbps
Maximum bit rate : 15.0 Mbps
Width : 720 pixels
Height : 576 pixels
Display aspect ratio : 4:3
Frame rate : 25.000 fps
Standard : PAL
Color space : YUV
Chroma subsampling : 4:2:0
Bit depth : 8 bits
Scan type : Interlaced
Scan order : Top Field First
Compression mode : Lossy
Bits/(Pixel*Frame) : 0.326
Stream size : 1.97 GiB (93%)

Audio
ID : 192 (0xC0)
Format : MPEG Audio
Format version : Version 1
Format profile : Layer 2
Duration : 1h 23mn
Bit rate mode : Constant
Bit rate : 192 Kbps
Channel(s) : 2 channels
Sampling rate : 48.0 KHz
Compression mode : Lossy
Stream size : 115 MiB (5%)





   Похожие торренты   Торрент   Размер 
В этой теме нет новых непрочитанных сообщений. Оскар 2010 / Номинации за 2009 г. / 82 церемония вручения наград Оскар (2010) / Oscar 2010 (2010) SATRip

0 | 4

2.19 ГБ

В этой теме нет новых непрочитанных сообщений. Космическая одиссея 2010 / 2010: Год вступления в контакт / 2010: The Year We Make Contact (1984) BDRip-AVC

32 | 3

1.88 ГБ

В этой теме нет новых непрочитанных сообщений. Sensation 2010: The Ocean Of White Saint Petersburg. Russia [12.06.2010] (2010) SATRip | Дополненая версия

0 | 3

4.85 ГБ

В этой теме нет новых непрочитанных сообщений. Интерактивный каталог Сименс СА01-2010 / SIEMENS A&D Technologies CA01-2010 RUSSIAN EDITION (2010) ISO

7 | 4

4.18 ГБ

В этой теме нет новых непрочитанных сообщений. Брендан Перри - Голландия [13.08.2010] / Brendan Perry - Domkerk, Utrecht [13.08.2010] (2010) CAMRip

0 | 1

3.61 ГБ

В этой теме нет новых непрочитанных сообщений. КВН-2010. Высшая лига. 1/4 финала. Вторая игра [Эфир от 2010.05.03] (2010) SATRip

0 | 8

1.37 ГБ

В этой теме нет новых непрочитанных сообщений. КВН-2010. Премьер-лига.1/8 финала. Первая игра [Эфир от 2010.05.23] (2010) SATRip

0 | 2

1.1 ГБ




Вы не можете начинать темы
Вы не можете отвечать на сообщения
Вы не можете редактировать свои сообщения
Вы не можете удалять свои сообщения
Вы не можете добавлять вложения

Перейти:  
Для Мосгорсуда, Роскомнадзора и рекламодателей: mosgorsud-torrent[собачка]yandex.ru
 Вход
ppkBB3cker v.2 © 2008-2014 @ PPK
[ Time : 0.019s | 14 Queries | GZIP : Off ]

Торрент трекер RUTOR.IN, Не можете зайти на rutor.org? Какой новый адрес рутор? Какое зеркало рутор? Не работает rutor.org и зеркала? Тогда наш торрент специально для вас. Rutor.in неофициальное зеркало rutor. В случае если у Вас заблокирован rutor или вдруг Вы не можете на него зайти, то Вы без труда сможете скачать бесплатно и без рекламы последние новинки кино, игр, сериалов и прочего у нас, на Rutor.in. Не нужно использовать прокси, чтобы зайти на рутор, достаточно воспользоваться нашим ресурсом. Все новые фильмы, игры, сериалы, книги и музыка за 2013 и 2014 годы через торрент бесплатно. Скачивайте фильмы в хорошем качестве, игры для пк, xbox, playstation без регистрации. У нас вы найдете новые Зарубежные сериалы и Русские сериалы 2013, 2014, 2015 годов. Оставайтесь с нами, качайте любимые фильмы, игры, сериалы, книги и музыку.