img image001 image001 image001 image001 image001 image001 image001 image001 image001 image001 image001 image001 image001 image001 image001

Planets Sun Sun Sun
Статистика раздачи
Автор: Снежана | Размер: 3.18 ГБ | Добавлен: 24 июл 2013
Раздают: 0    Качают: 4
Скачать торрент
Скачать торрент
Описание торрента

СообщениеДобавлено: 24 июл 2013 

Жанр: мелодрама
Год выпуска: 2012
Продолжительность: 01:42:37
Выпущено: Россия, Всемирные Русские Студии
Режиссёр: Александр Кириенко

В ролях: Алексей Серебряков, Виталий Хаев, Елена Лядова, Константин Крюков, Евгения Брик, Мадлен Джабраилова, Тимофей Трибунцев, Антон Ескин, Владимир Терещенко, Максим Макаров, Елизавета Гамбург, Дарья Гапоненко, Сергей Никитин

Описание: Владислав Лавров — владелец могущественной строительной империи. Ему во всём сопутствует удача — бизнес процветает, красавица жена делает головокружительную карьеру на эстраде, а любимая дочь — на телевидении. Но однажды в доме Лаврова появляется его давний друг — Саша Фролов. Он беден, смертельно болен, и все называют его Саша Саксофон за виртуозную игру на инструменте. Этот человек за один день полностью разрушает благополучную и отлаженную жизнь Лаврова...

Доп. информация: «Соло на саксофоне» — последний сценарий выдающегося советского и российского кинематографиста Вадима Зобина. Он написал сценарии для таких фильмов, как «Вербное воскресенье», «Забытый» и «Московский дворик». После кончины Зобина в 2010 году сценарий дописывала кинодраматург Мария Зверева.



Качество видео: DVB
Формат видео: MPEG-PS

Видео: MPEG-2; 720x576@1024x576 (16:9), 25 fps, ~4100 Kbps
Аудио: MPEG Audio, 48 kHz, 2 ch, 192 kbps
Общее
Полное имя : E:MPEGСоло на саксофоне.2012.DVB.Doc66.mpg
Формат : MPEG-PS
Размер файла : 3,18 Гбайт
Продолжительность : 1 ч. 42 м.
Режим общего битрейта : Переменный
Общий поток : 4440 Кбит/сек

Видео
Идентификатор : 224 (0xE0)
Формат : MPEG Video
Версия формата : Version 2
Профиль формата : Main@Main
Параметр BVOP формата : Да
Параметр матрицы формата : Выборочная
Параметр GOP формата : M=3, N=12
Продолжительность : 1 ч. 42 м.
Вид битрейта : Переменный
Битрейт : 4160 Кбит/сек
Максимальный битрейт : 15,0 Мбит/сек
Ширина : 720 пикселей
Высота : 576 пикселей
Соотношение сторон : 16:9
Частота кадров : 25,000 кадров/сек
Стандарт вещания : PAL
Цветовое пространство : YUV
Субдискретизация насыщенности : 4:2:0
Битовая глубина : 8 бит
Тип развёртки : Чересстрочная
Порядок развёртки : Верхнее поле первое
Метод сжатия : С потерями
Бит/(Пиксели*Кадры) : 0.401
Размер потока : 2,98 Гбайт (94%)

Аудио
Идентификатор : 192 (0xC0)
Формат : MPEG Audio
Версия формата : Version 1
Профиль формата : Layer 2
Продолжительность : 1 ч. 42 м.
Вид битрейта : Постоянный
Битрейт : 192 Кбит/сек
Каналы : 2 канала
Частота : 48,0 КГц
Метод сжатия : С потерями
Размер потока : 141 Мбайт (4%)




   Похожие торренты   Торрент   Размер 
В этой теме нет новых непрочитанных сообщений. Соло на саксофоне (2012) DVD5 | Лицензия

7 | 2

4.18 ГБ

В этой теме нет новых непрочитанных сообщений. Соло на саксофоне (2012) DVDRip | Лицензия

6 | 2

696.51 МБ

В этой теме нет новых непрочитанных сообщений. Соло на саксофоне (2012) DVDRip | Лицензия

15 | 4

1.46 ГБ

В этой теме нет новых непрочитанных сообщений. Соло на саксофоне (2012) DVDRip-AVC | Лицензия

3 | 2

1.46 ГБ

В этой теме нет новых непрочитанных сообщений. Соло на саксофоне (2012) DVDRip от Torrent-Xzona | Лицензия | КПК

2 | 2

527.92 МБ

В этой теме нет новых непрочитанных сообщений. VA - 100 Крутейших Гитарных Соло (2012) MP3

93 | 5

967.83 МБ

В этой теме нет новых непрочитанных сообщений. Дмитрий Соло - Нормальные песни (2012) MP3

0 | 2

119.88 МБ




Вы не можете начинать темы
Вы не можете отвечать на сообщения
Вы не можете редактировать свои сообщения
Вы не можете удалять свои сообщения
Вы не можете добавлять вложения

Перейти:  
Для Мосгорсуда, Роскомнадзора и рекламодателей: mosgorsud-torrent[собачка]yandex.ru
 Вход
ppkBB3cker v.2 © 2008-2014 @ PPK
[ Time : 0.038s | 15 Queries | GZIP : Off ]

Торрент трекер RUTOR.IN, Не можете зайти на rutor.org? Какой новый адрес рутор? Какое зеркало рутор? Не работает rutor.org и зеркала? Тогда наш торрент специально для вас. Rutor.in неофициальное зеркало rutor. В случае если у Вас заблокирован rutor или вдруг Вы не можете на него зайти, то Вы без труда сможете скачать бесплатно и без рекламы последние новинки кино, игр, сериалов и прочего у нас, на Rutor.in. Не нужно использовать прокси, чтобы зайти на рутор, достаточно воспользоваться нашим ресурсом. Все новые фильмы, игры, сериалы, книги и музыка за 2013 и 2014 годы через торрент бесплатно. Скачивайте фильмы в хорошем качестве, игры для пк, xbox, playstation без регистрации. У нас вы найдете новые Зарубежные сериалы и Русские сериалы 2013, 2014, 2015 годов. Оставайтесь с нами, качайте любимые фильмы, игры, сериалы, книги и музыку.
cron