img image001 image001 image001 image001 image001 image001 image001 image001 image001 image001 image001 image001 image001 image001 image001

Planets Sun Sun Sun
Статистика раздачи
Автор: Снежана | Размер: 2.23 ГБ | Добавлен: 24 июл 2013
Раздают: 2    Качают: 3
Скачать торрент
Скачать торрент
Описание торрента

СообщениеДобавлено: 24 июл 2013 

Жанр: мелодрама, комедия
Год выпуска: 2009
Продолжительность: 01:24:54
Выпущено: Россия
Режиссёр: Николай Глинский

В ролях: Ольга Берёзкина, Константин Милованов, Владислав Ветров, Ирина Бякова, Мария Шастина, Юлия Пивень, Зинаида Матросова, Павел Ильин, Людмила Уланова, Александр Синюков, Султан Исламов, Олег Филипчик, Алла Евдокимова, Эдина Венгер, Серафима Золотарева, Алексей Рахманов, Степан Коршунов, Елена Борисова, Елена Стародуб, Луиза Хуснутдинова, Юлия Балакирева

Описание: Узнаваемая история о любви, нежности, предательстве, измене, ревности и снова любви, в которой каждый, хотя бы где-то, увидит и себя со стороны...



Семпл: http://multi-up.com/731757

Качество видео: DVB
Формат видео: MPEG-TS

Видео: MPEG2 Video, 720x576 (4:3), VBR, 25 fps, 3380 Kbps, 0.33 bit/pixel
Аудио: 48 kHz, MPEG Audio, 2 ch, 192 kbps
General
ID : 1 (0x1)
Complete name : C:Нежные встречи_2009_DVB_by_dean10.ts
Format : MPEG-TS
File size : 2.23 GiB
Duration : 1h 24mn
Overall bit rate mode : Variable
Overall bit rate : 3 760 Kbps

Video
ID : 7081 (0x1BA9)
Menu ID : 1 (0x1)
Format : MPEG Video
Format version : Version 2
Format profile : Main@Main
Format settings, BVOP : Yes
Format settings, Matrix : Custom
Codec ID : 2
Duration : 1h 24mn
Bit rate mode : Variable
Bit rate : 3 380 Kbps
Maximum bit rate : 15.0 Mbps
Width : 720 pixels
Height : 576 pixels
Display aspect ratio : 4:3
Frame rate : 25.000 fps
Standard : PAL
Color space : YUV
Chroma subsampling : 4:2:0
Bit depth : 8 bits
Scan type : Interlaced
Scan order : Top Field First
Compression mode : Lossy
Bits/(Pixel*Frame) : 0.326
Stream size : 2.00 GiB (90%)

Audio
ID : 7082 (0x1BAA)
Menu ID : 1 (0x1)
Format : MPEG Audio
Format version : Version 1
Format profile : Layer 2
Codec ID : 3
Duration : 1h 24mn
Bit rate mode : Constant
Bit rate : 192 Kbps
Channel(s) : 2 channels
Sampling rate : 48.0 KHz
Compression mode : Lossy
Stream size : 117 MiB (5%)
Language : English





   Похожие торренты   Торрент   Размер 
В этой теме нет новых непрочитанных сообщений. Нежные встречи (2008) DVDRip

1 | 11

1.37 ГБ

В этой теме нет новых непрочитанных сообщений. Встречи на краю света / Встречи на краю мира / Encounters at the End of the World (2007) BDRip от HQCLUB

93 | 16

2.18 ГБ

В этой теме нет новых непрочитанных сообщений. Нежные растяпы / Zärtliche Chaoten (1987) DVDRip | L1

76 | 4

1.45 ГБ

В этой теме нет новых непрочитанных сообщений. Нежные кузины / Tendres Cousines (1980) DVDRip

105 | 21

1.46 ГБ

В этой теме нет новых непрочитанных сообщений. Нежные кузины / Tendres cousines (1980) DVDRip | A

309 | 46

740.65 МБ

В этой теме нет новых непрочитанных сообщений. Нежные кузины / Tendres cousines (1980) DVDRip-AVC | A

429 | 57

1.46 ГБ

В этой теме нет новых непрочитанных сообщений. Сергей Яковлевич Лемешев - Струны гитары нежные [Итальянские песни] (2006) FLAC

112 | 11

241.02 МБ




Вы не можете начинать темы
Вы не можете отвечать на сообщения
Вы не можете редактировать свои сообщения
Вы не можете удалять свои сообщения
Вы не можете добавлять вложения

Перейти:  
Для Мосгорсуда, Роскомнадзора и рекламодателей: mosgorsud-torrent[собачка]yandex.ru
 Вход
ppkBB3cker v.2 © 2008-2014 @ PPK
[ Time : 0.043s | 14 Queries | GZIP : Off ]

Торрент трекер RUTOR.IN, Не можете зайти на rutor.org? Какой новый адрес рутор? Какое зеркало рутор? Не работает rutor.org и зеркала? Тогда наш торрент специально для вас. Rutor.in неофициальное зеркало rutor. В случае если у Вас заблокирован rutor или вдруг Вы не можете на него зайти, то Вы без труда сможете скачать бесплатно и без рекламы последние новинки кино, игр, сериалов и прочего у нас, на Rutor.in. Не нужно использовать прокси, чтобы зайти на рутор, достаточно воспользоваться нашим ресурсом. Все новые фильмы, игры, сериалы, книги и музыка за 2013 и 2014 годы через торрент бесплатно. Скачивайте фильмы в хорошем качестве, игры для пк, xbox, playstation без регистрации. У нас вы найдете новые Зарубежные сериалы и Русские сериалы 2013, 2014, 2015 годов. Оставайтесь с нами, качайте любимые фильмы, игры, сериалы, книги и музыку.