img image001 image001 image001 image001 image001 image001 image001 image001 image001 image001 image001 image001 image001 image001 image001

Planets Sun Sun Sun
Статистика раздачи
Автор: Снежана | Размер: 5.81 ГБ | Добавлен: 24 июл 2013
Раздают: 0    Качают: 3
Скачать торрент
Скачать торрент
Описание торрента

СообщениеДобавлено: 24 июл 2013 

#77

Страна: Россия
Жанр: драма
Год выпуска: 2011
Дистрибьютор: «Монолит»
Продолжительность: 01:28:40

Перевод: Не требуется
Cубтитры: нет
Оригинальная аудиодорожка: русский
Режиссер: Александра Стреляная
В ролях:
Яна Есипович, Олег Гаркуша, Александр Ноткин, Даниил Шигапов, Вадим Сквирский,
Наталья Бурмистрова, Роза Хайруллина, Елена Калинина, Елена Калинина
Описание:
Это история Натальи, молодой и наивной девушки-крестьянки служащей в обедневшей дворянской семье в их деревенском поместье. Наталья не знает другой жизни, ее голова полна суеверий и страхов, но ее душа — душа героини. Через перипетии ее жизни: любовь, преданность хозяевам, мистический опыт, изгнание, предательство, веру, мы наблюдаем и то, как роковым образом складывается судьба семьи Хрущевых, в которой Наталья служит.

Возраст: 16+



Качество: DVD9
Формат: DVD-Video
Видео кодек: MPEG2
Аудио кодек: AC3
Видео: PAL 16:9 (720x576(0.752)) MPEG Video, 25,000 кадр/сек, 7792 Кбит/сек
Аудио: Russian (Dolby AC3, 6 ch) 448 Кбит/сек, 48,0 КГц


Title: Suhodol.2011.DVD9
Size: 5.81 Gb ( 6 088 184,00 KBytes ) - DVD-9
Enabled regions: 1, 2, 3, 4, 5, 6, 7, 8

VTS_01 :
Play Length: 01:28:40
Video: PAL 16:9 (720x576) VBR, Auto Pan&Scan, Auto Letterboxed
Audio:
Russian (Dolby AC3, 6 ch)

VTS_02 :
Play Length: 00:00:14+00:00:09+00:02:02+00:01:59+00:01:48+00:02:11+00:01:54+00:00:11
Video: PAL 16:9 (720x576) VBR, Auto Pan&Scan, Auto Letterboxed
Audio:
Russian (Dolby AC3, 6 ch)

* Menus Information *

VIDEO_TS Menu
Video:
PAL 16:9 (720x576) VBR
Auto Letterboxed
Audio:
Not specified (Dolby AC3, 2 ch)
English Language Unit :
Title Menu

VTS_01 Menu
Video:
PAL 16:9 (720x576) VBR
Auto Letterboxed
Audio:
Not specified (Dolby AC3, 2 ch)
English Language Unit :
Root Menu

VTS_02 Menu
Video:
NTSC 4:3 (720x480) VBR
Auto Pan&Scan, Auto Letterboxed
English Language Unit :
Root Menu

Общее
Полное имя : J:Новинки 2012Suhodol.2011.DVD9VIDEO_TSVTS_01_3.VOB
Формат : MPEG-PS
Размер файла : 1024 Мбайт
Продолжительность : 17 м.
Режим общего битрейта : Переменный
Общий поток : 8407 Кбит/сек

Видео
Идентификатор : 224 (0xE0)
Формат : MPEG Video
Версия формата : Version 2
Профиль формата : Main@Main
Параметр BVOP формата : Да
Параметр матрицы формата : Выборочная
Параметр GOP формата : M=3, N=13
Продолжительность : 17 м.
Вид битрейта : Переменный
Битрейт : 7792 Кбит/сек
Максимальный битрейт : 9200 Кбит/сек
Ширина : 720 пикселей
Высота : 576 пикселей
Соотношение сторон : 16:9
Частота кадров : 25,000 кадров/сек
Стандарт вещания : PAL
Цветовое пространство : YUV
Субдискретизация насыщенности : 4:2:0
Битовая глубина : 8 бит
Тип развёртки : Прогрессивная
Метод сжатия : С потерями
Бит/(Пиксели*Кадры) : 0.752
Размер потока : 949 Мбайт (93%)
Основные цвета : BT.601 PAL
Характеристики трансфера : BT.470 System B, BT.470 System G
Коэффициенты матрицы : BT.601

Аудио
Идентификатор : 189 (0xBD)-128 (0x80)
Формат : AC-3
Формат/Информация : Audio Coding 3
Расширение режима : CM (complete main)
Параметр Endianness формата : Big
Режим смешивания : DVD-Video
Продолжительность : 17 м.
Вид битрейта : Постоянный
Битрейт : 448 Кбит/сек
Каналы : 6 каналов
Расположение каналов : Front: L C R, Side: L R, LFE
Частота : 48,0 КГц
Битовая глубина : 16 бит
Метод сжатия : С потерями
Задержка видео : -432 мс.
Размер потока : 54,6 Мбайт (5%)





   Похожие торренты   Торрент   Размер 
В этой теме нет новых непрочитанных сообщений. Суходол (2011) DVDRip | Лицензия

7 | 3

1.37 ГБ

В этой теме нет новых непрочитанных сообщений. Суходол (2011) DVB

0 | 5

2.32 ГБ

В этой теме нет новых непрочитанных сообщений. Суходол (2011) SATRip от КинозалSAT

5 | 2

700.03 МБ

В этой теме нет новых непрочитанных сообщений. Суходол (2011) DVD5 | Сжатый

0 | 2

4.36 ГБ

В этой теме нет новых непрочитанных сообщений. Суходол (2011) WEB-DLRip 720p от MegaPeer

9 | 0

1.52 ГБ

В этой теме нет новых непрочитанных сообщений. Фея / La fee (2011) DVD9 | Лицензия

2 | 3

5.07 ГБ

В этой теме нет новых непрочитанных сообщений. 2 дня (2011) DVD9 | Лицензия

0 | 2

5.26 ГБ




Вы не можете начинать темы
Вы не можете отвечать на сообщения
Вы не можете редактировать свои сообщения
Вы не можете удалять свои сообщения
Вы не можете добавлять вложения

Перейти:  
Для Мосгорсуда, Роскомнадзора и рекламодателей: mosgorsud-torrent[собачка]yandex.ru
 Вход
ppkBB3cker v.2 © 2008-2014 @ PPK
[ Time : 0.081s | 14 Queries | GZIP : Off ]

Торрент трекер RUTOR.IN, Не можете зайти на rutor.org? Какой новый адрес рутор? Какое зеркало рутор? Не работает rutor.org и зеркала? Тогда наш торрент специально для вас. Rutor.in неофициальное зеркало rutor. В случае если у Вас заблокирован rutor или вдруг Вы не можете на него зайти, то Вы без труда сможете скачать бесплатно и без рекламы последние новинки кино, игр, сериалов и прочего у нас, на Rutor.in. Не нужно использовать прокси, чтобы зайти на рутор, достаточно воспользоваться нашим ресурсом. Все новые фильмы, игры, сериалы, книги и музыка за 2013 и 2014 годы через торрент бесплатно. Скачивайте фильмы в хорошем качестве, игры для пк, xbox, playstation без регистрации. У нас вы найдете новые Зарубежные сериалы и Русские сериалы 2013, 2014, 2015 годов. Оставайтесь с нами, качайте любимые фильмы, игры, сериалы, книги и музыку.