img image001 image001 image001 image001 image001 image001 image001 image001 image001 image001 image001 image001 image001 image001 image001

Planets Sun Sun Sun
Статистика раздачи
Автор: Снежана | Размер: 2.32 ГБ | Добавлен: 24 июл 2013
Раздают: 0    Качают: 5
Скачать торрент
Скачать торрент
Описание торрента

СообщениеДобавлено: 24 июл 2013 

Жанр: драма
Год выпуска: 2011
Продолжительность: 01:28:25

Режиссёр: Александра Стреляная

В ролях: Яна Есипович, Роза Хайруллина, Елена Калинина, Олег Гаркуша, Даниил Шигапов, Вадим Сквирский, Наталья Бурмистрова, Игорь Лепихин, Константин Стрелков, Екатерина Лопатина, Александр Ноткин

Описание:
По мотивам одноименной повести Ивана Бунина.
Наталья, молодая и наивная девушка-крестьянка, служит в обедневшей дворянской семье в их деревенском поместье. Наталья не знает другой жизни, ее голова полна суеверий и страхов, но ее душа — душа героини. Через перипетии ее жизни - любовь, преданность хозяевам, мистический опыт, изгнание, предательство, веру, - мы наблюдаем и то, как роковым образом складывается судьба семьи Хрущевых, в которой Наталья служит...

Доп. информация:

Награды: Всероссийский Шукшинский кинофестиваль — Главный приз
Международный Кинофестиваль в Гамбурге — Номинация на Главный приз
Кинотавр, 2011 год: Главный приз


Качество видео: DVB
Формат видео: TS

Видео: MPEG-2 Video, 720x576 (4:3), VBR, 25 fps, 3382 Kbps, 0.33 bit/pixel
Аудио: 48 kHz, MPEG Audio, 2 ch, 192 kbps
General
ID : 1 (0x1)
Complete name : C:Суходол_2011_DVB_by_dean10.ts
Format : MPEG-TS
File size : 2.32 GiB
Duration : 1h 28mn
Overall bit rate mode : Variable
Overall bit rate : 3 761 Kbps

Video
ID : 7081 (0x1BA9)
Menu ID : 1 (0x1)
Format : MPEG Video
Format version : Version 2
Format profile : Main@Main
Format settings, BVOP : Yes
Format settings, Matrix : Custom
Codec ID : 2
Duration : 1h 28mn
Bit rate mode : Variable
Bit rate : 3 382 Kbps
Maximum bit rate : 15.0 Mbps
Width : 720 pixels
Height : 576 pixels
Display aspect ratio : 4:3
Frame rate : 25.000 fps
Standard : PAL
Color space : YUV
Chroma subsampling : 4:2:0
Bit depth : 8 bits
Scan type : Interlaced
Scan order : Top Field First
Compression mode : Lossy
Bits/(Pixel*Frame) : 0.326
Stream size : 2.09 GiB (90%)

Audio
ID : 7082 (0x1BAA)
Menu ID : 1 (0x1)
Format : MPEG Audio
Format version : Version 1
Format profile : Layer 2
Codec ID : 3
Duration : 1h 28mn
Bit rate mode : Constant
Bit rate : 192 Kbps
Channel(s) : 2 channels
Sampling rate : 48.0 KHz
Compression mode : Lossy
Stream size : 121 MiB (5%)
Language : English




   Похожие торренты   Торрент   Размер 
В этой теме нет новых непрочитанных сообщений. Суходол (2011) DVD9 | Лицензия

0 | 3

5.81 ГБ

В этой теме нет новых непрочитанных сообщений. Суходол (2011) DVD5 | Сжатый

0 | 2

4.36 ГБ

В этой теме нет новых непрочитанных сообщений. Суходол (2011) DVDRip | Лицензия

7 | 3

1.37 ГБ

В этой теме нет новых непрочитанных сообщений. Суходол (2011) SATRip от КинозалSAT

5 | 2

700.03 МБ

В этой теме нет новых непрочитанных сообщений. Радио Маяк - Ранеты [14.01.2011 - 10.06.2011] [17.10.2011 - 27.01.2012] (2011) MP3

0 | 24

18.68 ГБ

В этой теме нет новых непрочитанных сообщений. Гонка Чемпионов 2011 Кубок наций+Личный зачёт / Race of Champions 2011 (2011) SATRip

0 | 2

3.86 ГБ

В этой теме нет новых непрочитанных сообщений. Формула 1. Сезон 2011. Гран-При Малазии 2011 (Сепанг). 2-я практика (2011) SATRip от Кинозал

0 | 2

1.19 ГБ




Вы не можете начинать темы
Вы не можете отвечать на сообщения
Вы не можете редактировать свои сообщения
Вы не можете удалять свои сообщения
Вы не можете добавлять вложения

Перейти:  
Для Мосгорсуда, Роскомнадзора и рекламодателей: mosgorsud-torrent[собачка]yandex.ru
 Вход
ppkBB3cker v.2 © 2008-2014 @ PPK
[ Time : 0.027s | 16 Queries | GZIP : Off ]

Торрент трекер RUTOR.IN, Не можете зайти на rutor.org? Какой новый адрес рутор? Какое зеркало рутор? Не работает rutor.org и зеркала? Тогда наш торрент специально для вас. Rutor.in неофициальное зеркало rutor. В случае если у Вас заблокирован rutor или вдруг Вы не можете на него зайти, то Вы без труда сможете скачать бесплатно и без рекламы последние новинки кино, игр, сериалов и прочего у нас, на Rutor.in. Не нужно использовать прокси, чтобы зайти на рутор, достаточно воспользоваться нашим ресурсом. Все новые фильмы, игры, сериалы, книги и музыка за 2013 и 2014 годы через торрент бесплатно. Скачивайте фильмы в хорошем качестве, игры для пк, xbox, playstation без регистрации. У нас вы найдете новые Зарубежные сериалы и Русские сериалы 2013, 2014, 2015 годов. Оставайтесь с нами, качайте любимые фильмы, игры, сериалы, книги и музыку.