img image001 image001 image001 image001 image001 image001 image001 image001 image001 image001 image001 image001 image001 image001 image001

Planets Sun Sun Sun
Статистика раздачи
Автор: Снежана | Размер: 2.09 ГБ | Добавлен: 24 июл 2013
Раздают: 1    Качают: 3
Скачать торрент
Скачать торрент
Описание торрента

СообщениеДобавлено: 24 июл 2013 

Жанр: боевик
Год выпуска: 1992
Продолжительность: 01.19.32
Перевод: Не требуется
Режиссёр: Александр Казаков
страна:Россия

В ролях: Ким Ин Хо, Шайыргуль Касымалиева, Саша Казаков, Валерий Гатаев, Олег Штефанко, Эрнст Романов, Инара Слуцка, Анатолий Гузенко, Сергей Куренков, Фёдор Смирнов, Касым Жакибаев, Михаил Ан, Петр Татарицкий (Алмазов), Владимир Пивоваров, Елена Беляева, Дмитрий Колчин,

Описание: «Чтобы стать непобедимым, нужно победить себя», — говорит главный герой Ким Ин Хо, основатель школы в бывшем СССР, преподающий древние боевые искусства. Он учит своих воспитанников быть мужественными, честными и служить добру, но местные мафиози убивают его младшего брата, и Мастер Востока направляется в гнездо бандитов, чтобы отстоять свои идеалы…



Семпл: http://multi-up.com/735288

Качество видео: DVB
Формат видео: MPEG-TS

Видео: MPEG-2 Video, 720x576 (4:3), VBR, 25 fps, 3382 Kbps, 0.33 bit/pixel
Аудио: 48 kHz, MPEG Audio, 2 ch, 192 kbps
General
ID : 1 (0x1)
Complete name : C:Мастер востока_1992_DVB_by_dean10.ts
Format : MPEG-TS
File size : 2.09 GiB
Duration : 1h 19mn
Overall bit rate mode : Variable
Overall bit rate : 3 759 Kbps

Video
ID : 7081 (0x1BA9)
Menu ID : 1 (0x1)
Format : MPEG Video
Format version : Version 2
Format profile : Main@Main
Format settings, BVOP : Yes
Format settings, Matrix : Custom
Codec ID : 2
Duration : 1h 19mn
Bit rate mode : Variable
Bit rate : 3 380 Kbps
Maximum bit rate : 15.0 Mbps
Width : 720 pixels
Height : 576 pixels
Display aspect ratio : 4:3
Frame rate : 25.000 fps
Standard : PAL
Color space : YUV
Chroma subsampling : 4:2:0
Bit depth : 8 bits
Scan type : Interlaced
Scan order : Top Field First
Compression mode : Lossy
Bits/(Pixel*Frame) : 0.326
Stream size : 1.88 GiB (90%)

Audio
ID : 7082 (0x1BAA)
Menu ID : 1 (0x1)
Format : MPEG Audio
Format version : Version 1
Format profile : Layer 2
Codec ID : 3
Duration : 1h 19mn
Bit rate mode : Constant
Bit rate : 192 Kbps
Channel(s) : 2 channels
Sampling rate : 48.0 KHz
Compression mode : Lossy
Stream size : 109 MiB (5%)
Language : English




   Похожие торренты   Торрент   Размер 
В этой теме нет новых непрочитанных сообщений. Ветер с востока / Vent d'est (1992) DVDRip от Киномагия | Р

20 | 1

1.45 ГБ

В этой теме нет новых непрочитанных сообщений. Мастер дзен Бодхидхарма / Dzen master Bodhidharma (1992) DVDRip

67 | 4

1015.28 МБ

В этой теме нет новых непрочитанных сообщений. Мастер / Long hang tian xia (1992) BDRip 1080p от Freak Chaos | A

32 | 16

5.98 ГБ

В этой теме нет новых непрочитанных сообщений. Мастер перевоплощения / Мастер маскировки / The Master of Disguise (2002) DVDRip от ParaBOX

10 | 35

1.46 ГБ

В этой теме нет новых непрочитанных сообщений. Мастер Муши / Мастер Муси / Mushishi / Bugmaster / Mushi-Shi: The Movie (2006) HDRip от RG Orient Extreme | L1

37 | 5

2.2 ГБ

В этой теме нет новых непрочитанных сообщений. Мастер Муши / Мастер Муси / Mushishi / Bugmaster / Mushi-Shi: The Movie (2006) HDRip от RG Orient Extreme | L1

53 | 7

1.46 ГБ

В этой теме нет новых непрочитанных сообщений. Мастер тай-чи / Мастер тай-цзи / Man of Tai Chi (2013) HDRip от Scarabey | D | iTunes

167 | 42

744.57 МБ




Вы не можете начинать темы
Вы не можете отвечать на сообщения
Вы не можете редактировать свои сообщения
Вы не можете удалять свои сообщения
Вы не можете добавлять вложения

Перейти:  
Для Мосгорсуда, Роскомнадзора и рекламодателей: mosgorsud-torrent[собачка]yandex.ru
 Вход
ppkBB3cker v.2 © 2008-2014 @ PPK
[ Time : 0.520s | 14 Queries | GZIP : Off ]

Торрент трекер RUTOR.IN, Не можете зайти на rutor.org? Какой новый адрес рутор? Какое зеркало рутор? Не работает rutor.org и зеркала? Тогда наш торрент специально для вас. Rutor.in неофициальное зеркало rutor. В случае если у Вас заблокирован rutor или вдруг Вы не можете на него зайти, то Вы без труда сможете скачать бесплатно и без рекламы последние новинки кино, игр, сериалов и прочего у нас, на Rutor.in. Не нужно использовать прокси, чтобы зайти на рутор, достаточно воспользоваться нашим ресурсом. Все новые фильмы, игры, сериалы, книги и музыка за 2013 и 2014 годы через торрент бесплатно. Скачивайте фильмы в хорошем качестве, игры для пк, xbox, playstation без регистрации. У нас вы найдете новые Зарубежные сериалы и Русские сериалы 2013, 2014, 2015 годов. Оставайтесь с нами, качайте любимые фильмы, игры, сериалы, книги и музыку.