img image001 image001 image001 image001 image001 image001 image001 image001 image001 image001 image001 image001 image001 image001 image001

Planets Sun Sun Sun
Статистика раздачи
Автор: Снежана | Размер: 2.44 ГБ | Добавлен: 24 июл 2013
Раздают: 0    Качают: 2
Скачать торрент
Скачать торрент
Описание торрента

СообщениеДобавлено: 24 июл 2013 

Жанр: мелодрама
Год выпуска: 2011
Продолжительность: 01:32:57

Режиссёр: Пётр Шерешевский

В ролях: Дмитрий Воробьёв (II), Юлия Копылова, Игорь Черневич, Леонид Алимов, Татьяна Рассказова, Ирина Полянская, Валентина Панина, Лиана Жвания, Елена Калинина, Роман Грибков, Виктория Жилина, Надежда Черных, Сергей Уманов, Саша Дробитько

Описание: Жил-был петербургский доктор-невропатолог, он был добрый, и звали его... нет, не Айболит. Зовут его Константин Анатольевич Обручев. Жизнь у него невеселая - небогат, одинок, живет с родителями (маменька пилит постоянно). Есть у него любовница - коллега, доктор Маша, красивая, одинокая. Любовница есть, а любви нет, и одно одиночество, помноженное на другое, давит еще сильнее. Была жена, изменявшая ему, родившая двоих детей от другого и ушедшая к этому другому пять лет назад, однако, регулярно приходящая занимать деньги к бывшему мужу. Зав. отделением постоянно им недовольна, делает выговоры за "неврастению и мерехлюндию". И вот как-то раз отправляет она его в командировку в маленький провинциальный городок - прочитать пару лекций "по профилю", заработать какую-никакую денежку, успокоиться, отдохнуть (благо, времени свободного будет много) и посмотреть, как там люди живут...

Доп. информация:



По мотивам одноименной повести Петра Шерешевского, выпущенной в 2003 году под псевдонимом "Ю. Мен".

Семпл: http://multi-up.com/711682

Качество видео: DVB
Формат видео: TS

Видео: MPEG2, 720x576 (4:3) ~ 3380 Kbps, 25.000 fps, 0.326 bit/pixel
Аудио: MPEG Audio Layer 2, 48 кГц, stereo, 192 kbps
General
ID : 1 (0x1)
Complete name : C:Прянички_2009_DVB_by_dean10.ts
Format : MPEG-TS
File size : 2.44 GiB
Duration : 1h 32mn
Overall bit rate mode : Variable
Overall bit rate : 3 759 Kbps

Video
ID : 7081 (0x1BA9)
Menu ID : 1 (0x1)
Format : MPEG Video
Format version : Version 2
Format profile : Main@Main
Format settings, BVOP : Yes
Format settings, Matrix : Custom
Codec ID : 2
Duration : 1h 32mn
Bit rate mode : Variable
Bit rate : 3 380 Kbps
Maximum bit rate : 15.0 Mbps
Width : 720 pixels
Height : 576 pixels
Display aspect ratio : 4:3
Frame rate : 25.000 fps
Standard : PAL
Color space : YUV
Chroma subsampling : 4:2:0
Bit depth : 8 bits
Scan type : Interlaced
Scan order : Top Field First
Compression mode : Lossy
Bits/(Pixel*Frame) : 0.326
Stream size : 2.19 GiB (90%)

Audio
ID : 7082 (0x1BAA)
Menu ID : 1 (0x1)
Format : MPEG Audio
Format version : Version 1
Format profile : Layer 2
Codec ID : 3
Duration : 1h 32mn
Bit rate mode : Constant
Bit rate : 192 Kbps
Channel(s) : 2 channels
Sampling rate : 48.0 KHz
Compression mode : Lossy
Delay relative to video : 9ms
Stream size : 128 MiB (5%)
Language : English





   Похожие торренты   Торрент   Размер 
В этой теме нет новых непрочитанных сообщений. Прянички (2011) SATRip от КинозалSAT

3 | 2

701.6 МБ

В этой теме нет новых непрочитанных сообщений. Прянички (2011) SATRip от КинозалSAT

3 | 2

1.37 ГБ

В этой теме нет новых непрочитанных сообщений. Радио Маяк - Ранеты [14.01.2011 - 10.06.2011] [17.10.2011 - 27.01.2012] (2011) MP3

0 | 24

18.68 ГБ

В этой теме нет новых непрочитанных сообщений. Гонка Чемпионов 2011 Кубок наций+Личный зачёт / Race of Champions 2011 (2011) SATRip

0 | 2

3.86 ГБ

В этой теме нет новых непрочитанных сообщений. Формула 1. Сезон 2011. Этап 8 из 19. Гран-При Европы 2011. Квалификация (2011) SATRip от tenow

0 | 2

1.66 ГБ

В этой теме нет новых непрочитанных сообщений. Формула 1. Сезон 2011. Этап 9 из 19. Гран-При Великобритании 2011. Квалификация (2011) SATRip от tenow

0 | 2

1.05 ГБ

В этой теме нет новых непрочитанных сообщений. Формула 1. Сезон 2011. Этап 12 из 19. Гран-При Бельгии 2011. Квалификация (2011) SatTV от tenow

0 | 2

1.11 ГБ




Вы не можете начинать темы
Вы не можете отвечать на сообщения
Вы не можете редактировать свои сообщения
Вы не можете удалять свои сообщения
Вы не можете добавлять вложения

Перейти:  
Для Мосгорсуда, Роскомнадзора и рекламодателей: mosgorsud-torrent[собачка]yandex.ru
 Вход
ppkBB3cker v.2 © 2008-2014 @ PPK
[ Time : 0.023s | 14 Queries | GZIP : Off ]

Торрент трекер RUTOR.IN, Не можете зайти на rutor.org? Какой новый адрес рутор? Какое зеркало рутор? Не работает rutor.org и зеркала? Тогда наш торрент специально для вас. Rutor.in неофициальное зеркало rutor. В случае если у Вас заблокирован rutor или вдруг Вы не можете на него зайти, то Вы без труда сможете скачать бесплатно и без рекламы последние новинки кино, игр, сериалов и прочего у нас, на Rutor.in. Не нужно использовать прокси, чтобы зайти на рутор, достаточно воспользоваться нашим ресурсом. Все новые фильмы, игры, сериалы, книги и музыка за 2013 и 2014 годы через торрент бесплатно. Скачивайте фильмы в хорошем качестве, игры для пк, xbox, playstation без регистрации. У нас вы найдете новые Зарубежные сериалы и Русские сериалы 2013, 2014, 2015 годов. Оставайтесь с нами, качайте любимые фильмы, игры, сериалы, книги и музыку.