img image001 image001 image001 image001 image001 image001 image001 image001 image001 image001 image001 image001 image001 image001 image001

Planets Sun Sun Sun
Статистика раздачи
Автор: Снежана | Размер: 4.37 ГБ | Добавлен: 24 июл 2013
Раздают: 121    Качают: 12
Скачать торрент
Скачать торрент
Описание торрента

СообщениеДобавлено: 24 июл 2013 

Человек-амфибия




#77
Год выпуска: 1961
Страна: СССР
Жанр: фантастика, мелодрама...
Продолжительность: 01:36:21
Перевод: Не требуется
Субтитры: Russian (UTF-8), French (UTF-8), German (UTF-8), English (UTF-8)

Режиссер: Владимир Чеботарев, Геннадий Казанский
Сценарий: Акиба Гольбурт, Алексей Каплер, Александр Ксенофонтов, ...
Оператор: Эдуард Розовский
Композитор: Андрей Петров
Художник: Всеволод Улитко, Т. Васильковская
Монтаж: Людмила Образумова

В ролях: Владимир Коренев (Ихтиандр), Анастасия Вертинская (Гуттиэре Бальтазар), Михаил Козаков (Дон Педро), Николай Симонов (Сальватор), Владлен Давыдов (Ольсен), Анатолий Смиранин (старый Бальтазар), А. Антонян , Валерий Кудряшов


Описание: Однажды талантливый ученый доктор Сальватор спас жизнь маленькому мальчику, пересадив ему жабры акулы. С этого дня Ихтиандр, так назвал своего приемного сына ученый, мог плавать под водой, как рыба, нырять на любую глубину, но ему было тяжело подолгу находиться на суше…

Годы спустя по тихому морскому городу поползли слухи о странном существе, наводящем ужас на всех рыбаков, o «морском дьяволе». В это же самое время в городе появляется молодой человек, который мало общается с людьми и прекрасно плавает. Он знакомится с дочерью бедного ныряльщика за жемчугом, красавицей Гутиэре и без памяти в нее влюбляется…


Зрители: СССР 65.4 млн
Премьера (мир): 3 января 1962, ...
Релиз на DVD: 25 марта 2010, «Lizard Cinema Trade», ...
Релиз на Blu-Ray: 20 июля 2011, «Парадиз Медиа», ...




Качество: BDRip.1080р
Формат: MKV
Видео кодек: AVC
Аудио кодеk: AC3
Видео: 1480x1080 (1.370:1), 23.976 fps, AVC, 6 048 Kbps
Аудио: AC3, 448 Kbps, 48.0 KHz, 6 ch




General
Complete name : Chelovek.amfibiya.1961.BDRip.1080р.mkv
Format : Matroska
File size : 4.37 GiB
Duration : 1h 36mn
Overall bit rate : 6 495 Kbps
Encoded date : UTC 2013-05-28 17:19:38
Writing application : mkvmerge v6.1.0 ('Old Devil') built on Mar 2 2013 14:32:37
Writing library : libebml v1.3.0 + libmatroska v1.4.0

Video
ID : 1
Format : AVC
Format/Info : Advanced Video Codec
Format profile : High@L4.1
Format settings, CABAC : Yes
Format settings, ReFrames : 4 frames
Muxing mode : Container profile=Unknown@4.1
Codec ID : V_MPEG4/ISO/AVC
Duration : 1h 36mn
Bit rate : 6 048 Kbps
Width : 1 480 pixels
Height : 1 080 pixels
Display aspect ratio : 1.370
Frame rate : 23.976 fps
Color space : YUV
Chroma subsampling : 4:2:0
Bit depth : 8 bits
Scan type : Progressive
Bits/(Pixel*Frame) : 0.158
Stream size : 3.98 GiB (91%)
Writing library : x264 core 133 r2334 a3ac64b
Encoding settings : cabac=1 / ref=4 / deblock=1:-1:-1 / analyse=0x3:0x133 / me=umh / subme=10 / psy=1 / psy_rd=1.00:0.00 / mixed_ref=1 / me_range=32 / chroma_me=1 / trellis=2 / 8x8dct=1 / cqm=0 / deadzone=21,11 / fast_pskip=0 / chroma_qp_offset=-2 / threads=6 / lookahead_threads=1 / sliced_threads=0 / nr=0 / decimate=1 / interlaced=0 / bluray_compat=0 / constrained_intra=0 / bframes=8 / b_pyramid=2 / b_adapt=2 / b_bias=0 / direct=3 / weightb=1 / open_gop=0 / weightp=2 / keyint=240 / keyint_min=24 / scenecut=40 / intra_refresh=0 / rc_lookahead=50 / rc=2pass / mbtree=0 / bitrate=6048 / ratetol=2.0 / qcomp=1.00 / qpmin=0 / qpmax=51 / qpstep=4 / cplxblur=20.0 / qblur=0.5 / vbv_maxrate=27000 / vbv_bufsize=20000 / nal_hrd=none / ip_ratio=1.40 / pb_ratio=1.30 / aq=1:1.00
Color primaries : BT.709-5, BT.1361, IEC 61966-2-4, SMPTE RP177
Transfer characteristics : BT.709-5, BT.1361
Matrix coefficients : BT.709-5, BT.1361, IEC 61966-2-4 709, SMPTE RP177

Audio
ID : 2
Format : AC-3
Format/Info : Audio Coding 3
Mode extension : CM (complete main)
Codec ID : A_AC3
Duration : 1h 36mn
Bit rate mode : Constant
Bit rate : 448 Kbps
Channel(s) : 6 channels
Channel positions : Front: L C R, Side: L R, LFE
Sampling rate : 48.0 KHz
Bit depth : 16 bits
Stream size : 309 MiB (7%)
Language : Russian

Text #1
ID : 3
Format : UTF-8
Codec ID : S_TEXT/UTF8
Codec ID/Info : UTF-8 Plain Text
Language : Russian

Text #2
ID : 4
Format : UTF-8
Codec ID : S_TEXT/UTF8
Codec ID/Info : UTF-8 Plain Text
Language : French

Text #3
ID : 5
Format : UTF-8
Codec ID : S_TEXT/UTF8
Codec ID/Info : UTF-8 Plain Text
Language : German

Text #4
ID : 6
Format : UTF-8
Codec ID : S_TEXT/UTF8
Codec ID/Info : UTF-8 Plain Text


★ Занимает по посещаемости 11-е место среди отечественных фильмов за всю историю советского кинопроката.

★ Сценарий фильма «Человек-амфибия» несколько лет лежал в киностудии «Ленфильм». Никто не хотел браться за съёмки ввиду технических сложностей. Режиссёр Владимир Чеботарёв к тому времени уже имел опыт работы в научно-популярном кино, где проводил подводные съёмки. У него родилась идея что актёрам можно погружаться с аквалангом, потом, отсоединив баллон и загубник, переходить в свободное плавание. Таким образом, у оператора есть около минуты, чтобы снять очередной дубль. В роли консультанта фильма и, в последствии, каскадёра выступил известный спортсмен-дайвер Рэм Стукалов.

★ Для съёмок была найдена бухта Ласпи (Крымский полуостров) с достаточно прозрачной водой. Была куплена старая рыболовецкая шхуна и организован вольер для дельфинов.

★ Актёры Владимр Коренев и Анастасия Вертинская прошли долгие тренировки подводного плавания в бассейне и затем начали съёмки. Тем не менее съёмочная группа не раз подвергалась опасности из-за сложности работы под водой. В эпизоде, когда Ихтиандр опускается под воду на цепи, матрос не уследил за ней, выпустил из рук, и многометровая железная цепь чуть не утащила ко дну Владимира Коренева, но, к счастью, его подстраховали.




Релиз группы:



   Похожие торренты   Торрент   Размер 
В этой теме нет новых непрочитанных сообщений. Человек-амфибия (1961) BDRip 1080p

45 | 31

8.12 ГБ

В этой теме нет новых непрочитанных сообщений. Человек-амфибия (1961) BDRip от HELLYWOOD

650 | 21

1.45 ГБ

В этой теме нет новых непрочитанных сообщений. Человек-амфибия (1961) BDRip-AVC от ExKinoRay

4 | 3

1.37 ГБ

В этой теме нет новых непрочитанных сообщений. Человек-амфибия (1961) BDRip 720p

0 | 4

4.65 ГБ

В этой теме нет новых непрочитанных сообщений. Человек-амфибия (1961) BDRip от sergeorg

42 | 3

1.46 ГБ

В этой теме нет новых непрочитанных сообщений. Человек-амфибия (1961) BDRip от HQCLUB

26 | 4

1.79 ГБ

В этой теме нет новых непрочитанных сообщений. Человек-амфибия (1961) BDRip 720p от ExKinoRay

9 | 10

2.93 ГБ




Вы не можете начинать темы
Вы не можете отвечать на сообщения
Вы не можете редактировать свои сообщения
Вы не можете удалять свои сообщения
Вы не можете добавлять вложения

Перейти:  
Для Мосгорсуда, Роскомнадзора и рекламодателей: mosgorsud-torrent[собачка]yandex.ru
 Вход
ppkBB3cker v.2 © 2008-2014 @ PPK
[ Time : 0.020s | 14 Queries | GZIP : On ]

Торрент трекер RUTOR.IN, Не можете зайти на rutor.org? Какой новый адрес рутор? Какое зеркало рутор? Не работает rutor.org и зеркала? Тогда наш торрент специально для вас. Rutor.in неофициальное зеркало rutor. В случае если у Вас заблокирован rutor или вдруг Вы не можете на него зайти, то Вы без труда сможете скачать бесплатно и без рекламы последние новинки кино, игр, сериалов и прочего у нас, на Rutor.in. Не нужно использовать прокси, чтобы зайти на рутор, достаточно воспользоваться нашим ресурсом. Все новые фильмы, игры, сериалы, книги и музыка за 2013 и 2014 годы через торрент бесплатно. Скачивайте фильмы в хорошем качестве, игры для пк, xbox, playstation без регистрации. У нас вы найдете новые Зарубежные сериалы и Русские сериалы 2013, 2014, 2015 годов. Оставайтесь с нами, качайте любимые фильмы, игры, сериалы, книги и музыку.