img image001 image001 image001 image001 image001 image001 image001 image001 image001 image001 image001 image001 image001 image001 image001

Planets Sun Sun Sun
Статистика раздачи
Автор: Снежана | Размер: 2.88 ГБ | Добавлен: 24 июл 2013
Раздают: 5    Качают: 2
Скачать торрент
Скачать торрент
Описание торрента

СообщениеДобавлено: 24 июл 2013 

Жанр: Криминал, драма
Год выпуска: 2011
Страна: Россия
Выпущено: Триикс Медиа
Продолжительность: 1 ч. 29 м. 53 с.
Перевод: Оригинал
Источник: собственный рип

Режиссёр: Игорь Москвитин

В ролях: Егор Пазенко, Андрей Чубченко, Анна Табанина, Дмитрий Лебедев, Павел Миронов, Кирилл Датешидзе, Наталья Ткаченко, Вадим Парфенов, Геша Меньшиков, Федор Коносов и др.

Описание: Отец Андрей жил мирно: читал проповеди, иногда заглядывал в бар, чтобы пообщаться с прихожанами в неформальной обстановке, опекал Катю и ее сына Гришку. В городе после того, как был арестован и посажен Агафонов, воцарились тишь да благодать. Происшествия, конечно, случались, но начальник местной милиции Муров уверенно стоял на страже закона и порядка. И вдруг, как гром среди ясного неба, — дерзкое ограбление и захват заложников. Отцу Андрею удается спасти маленькую Юлю, убедив бандитов отпустить девочку. Вот только этот печальный инцидент оказался лишь первым звоночком. Сначала в город приехал Иван Лебедев — бывший подельник Андрея. Настоятель, не помня зла, помог Ивану, несмотря на его дурную репутацию, освоиться в городке. Но вскоре из Питера прибывают и другие гости — жестокая банда. У отца Андрея не остается выбора: он вынужден вновь взяться за оружие…

Доп. информация: Хотел сделать и XviD 720x400, но, пока не могу ничего обещать, много других важных дел.. если есть желающие, - сделайте из этого исходника.



Качество видео: DVB
Формат видео: MPG

Видео: MPEG2, 720х576, 4300 kbps (VBR), 25 fps
Аудио: MP2, 48 kHz, 192 kbps, 2 ch
General
Complete name : D:TempНастоятель-2.mpg
Format : MPEG-PS
File size : 2.88 GiB
Duration : 1h 29mn
Overall bit rate : 4 585 Kbps
Writing library : (c) 1998-2011 Womble Multimedia, Inc. / MPEG Video Wizard DVD 5.0.1.100 (03/2011) / May 11 2011

Video
ID : 224 (0xE0)
Format : MPEG Video
Format version : Version 2
Format profile : Main@Main
Format settings, BVOP : Yes
Format settings, Matrix : Default
Duration : 1h 29mn
Bit rate mode : Variable
Bit rate : 4 302 Kbps
Nominal bit rate : 15.0 Mbps
Width : 720 pixels
Height : 576 pixels
Display aspect ratio : 4:3
Frame rate : 25.000 fps
Standard : PAL
Color space : YUV
Chroma subsampling : 4:2:0
Bit depth : 8 bits
Scan type : Progressive
Scan order : Top Field First
Bits/(Pixel*Frame) : 0.415
Stream size : 2.70 GiB (94%)
Writing library : (c) 1998-2011 Womble Multimedia, Inc. / MPEG Video Wizard DVD 5.0.1.100 (03/2011) / May 11 2011

Audio
ID : 192 (0xC0)
Format : MPEG Audio
Format version : Version 1
Format profile : Layer 2
Duration : 1h 29mn
Bit rate mode : Constant
Bit rate : 192 Kbps
Channel(s) : 2 channels
Sampling rate : 48.0 KHz
Stream size : 124 MiB (4%)





   Похожие торренты   Торрент   Размер 
В этой теме нет новых непрочитанных сообщений. Настоятель 2 (2011) DVDRip

96 | 9

1.37 ГБ

В этой теме нет новых непрочитанных сообщений. Настоятель 2 (2011) DVD5

2 | 3

3.81 ГБ

В этой теме нет новых непрочитанных сообщений. Настоятель 2 (2011) DVDRip | КПК от Kino@rena

1 | 3

289.5 МБ

В этой теме нет новых непрочитанных сообщений. Настоятель 2 (2011) DVDRip-AVC [Hi10P] от FREEISLAND

2 | 3

699.78 МБ

В этой теме нет новых непрочитанных сообщений. Настоятель: Дилогия (2010-2011) DVВRip-AVC

39 | 19

4.52 ГБ

В этой теме нет новых непрочитанных сообщений. Настоятель (2010) DVDRip от Generalfilm

107 | 18

1.37 ГБ

В этой теме нет новых непрочитанных сообщений. Настоятель (2010) DVDRip-AVC от FREEISLAND

6 | 2

699.67 МБ




Вы не можете начинать темы
Вы не можете отвечать на сообщения
Вы не можете редактировать свои сообщения
Вы не можете удалять свои сообщения
Вы не можете добавлять вложения

Перейти:  
Для Мосгорсуда, Роскомнадзора и рекламодателей: mosgorsud-torrent[собачка]yandex.ru
 Вход
ppkBB3cker v.2 © 2008-2014 @ PPK
[ Time : 0.020s | 15 Queries | GZIP : Off ]

Торрент трекер RUTOR.IN, Не можете зайти на rutor.org? Какой новый адрес рутор? Какое зеркало рутор? Не работает rutor.org и зеркала? Тогда наш торрент специально для вас. Rutor.in неофициальное зеркало rutor. В случае если у Вас заблокирован rutor или вдруг Вы не можете на него зайти, то Вы без труда сможете скачать бесплатно и без рекламы последние новинки кино, игр, сериалов и прочего у нас, на Rutor.in. Не нужно использовать прокси, чтобы зайти на рутор, достаточно воспользоваться нашим ресурсом. Все новые фильмы, игры, сериалы, книги и музыка за 2013 и 2014 годы через торрент бесплатно. Скачивайте фильмы в хорошем качестве, игры для пк, xbox, playstation без регистрации. У нас вы найдете новые Зарубежные сериалы и Русские сериалы 2013, 2014, 2015 годов. Оставайтесь с нами, качайте любимые фильмы, игры, сериалы, книги и музыку.