img image001 image001 image001 image001 image001 image001 image001 image001 image001 image001 image001 image001 image001 image001 image001

Planets Sun Sun Sun
Статистика раздачи
Автор: Снежана | Размер: 1.46 ГБ | Добавлен: 24 июл 2013
Раздают: 4    Качают: 3
Скачать торрент
Скачать торрент
Описание торрента

СообщениеДобавлено: 24 июл 2013 

#77
Страна: СССР
Производство: Мосфильм
Жанр: приключения, военный
Год выпуска: 1966
Продолжительность: 01:36:58

Перевод: не требуется
Оригинальная аудиодорожка: русский
Cубтитры: нет

Режиссер: Владимир Чеботарев

В ролях:
Анатолий Азо, Владислав Стржельчик, Михаил Глузский, Владимир Самойлов, Лариса Голубкина, Юрий Яковлев, Павел Массальский, Владимир Гуляев, Всеволод Сафонов, Борис Дуров, Николай Граббе, Алла Будницкая, Ефим Копелян, Всеволод Ларионов...

Описание:
Великая Отечественная. Воспользовавшись паникой после взрыва нефтебазы в Положске, кто-то сумел ознакомиться с секретными документами генерала фон Рогге. Немало усилий приложил эсэсовский генерал Готтбург, прежде чем обнаружил, что под маской ресторанного повара-бельгийца скрывается опытный советский разведчик...





Исходник: DVD5 R5
Тип релиза: DVDRip-AVC
Контейнер: MKV

Видео: 696x400@744x400 (1,861:1), 25 fps, H264 ~ 1763 kbps avg, 0.253 bit/pixel
Аудио: 48 kHz, Dolby AC3 2.0, 384 kbps

Раздача от:
Общее
Полное имя : Kak.Vas.teper'.nazyvat'.1966.DVDRip-AVC_[Youtracker]_by_AVP Studio.mkv
Формат : Matroska
Версия формата : Version 2
Размер файла : 1,46 Гбайт
Продолжительность : 1 ч. 36 м.
Общий поток : 2149 Кбит/сек
Дата кодирования : UTC 2013-05-29 08:10:13
Программа кодирования : mkvmerge v5.0.1 ('Es ist Sommer') built on Nov 6 2011 16:23:40
Библиотека кодирования : libebml v1.2.2 + libmatroska v1.3.0

Видео
Идентификатор : 1
Формат : AVC
Формат/Информация : Advanced Video Codec
Профиль формата : High@L4.1
Параметр CABAC формата : Да
Параметр ReFrames формата : 11 кадров
Идентификатор кодека : V_MPEG4/ISO/AVC
Продолжительность : 1 ч. 36 м.
Битрейт : 1763 Кбит/сек
Ширина : 696 пикселей
Высота : 400 пикселей
Соотношение сторон : 1,862
Соотношение сторон в оригинале : 1,861
Частота кадров : 25,000 кадров/сек
Цветовое пространство : YUV
Субдискретизация насыщенности : 4:2:0
Битовая глубина : 8 бит
Тип развёртки : Прогрессивная
Бит/(Пиксели*Кадры) : 0.253
Размер потока : 1,17 Гбайт (80%)
Библиотека кодирования : x264 core 130 r2273 b3065e6
Настройки программы : cabac=1 / ref=11 / deblock=1:-2:-1 / analyse=0x3:0x113 / me=umh / subme=9 / psy=1 / psy_rd=1.00:0.20 / mixed_ref=1 / me_range=32 / chroma_me=1 / trellis=1 / 8x8dct=1 / cqm=0 / deadzone=21,11 / fast_pskip=0 / chroma_qp_offset=-3 / threads=3 / lookahead_threads=1 / sliced_threads=0 / nr=0 / decimate=0 / interlaced=0 / bluray_compat=0 / constrained_intra=0 / bframes=8 / b_pyramid=2 / b_adapt=2 / b_bias=0 / direct=3 / weightb=1 / open_gop=0 / weightp=2 / keyint=250 / keyint_min=25 / scenecut=40 / intra_refresh=0 / rc_lookahead=60 / rc=2pass / mbtree=1 / bitrate=1763 / ratetol=1.0 / qcomp=0.60 / qpmin=0 / qpmax=69 / qpstep=4 / cplxblur=20.0 / qblur=0.5 / ip_ratio=1.40 / aq=1:1.00
Default : Да
Forced : Нет

Аудио
Идентификатор : 2
Формат : AC-3
Формат/Информация : Audio Coding 3
Расширение режима : CM (complete main)
Идентификатор кодека : A_AC3
Продолжительность : 1 ч. 36 м.
Вид битрейта : Постоянный
Битрейт : 384 Кбит/сек
Каналы : 2 канала
Расположение каналов : Front: L R
Частота : 48,0 КГц
Битовая глубина : 16 бит
Метод сжатия : С потерями
Размер потока : 266 Мбайт (18%)
Default : Да
Forced : Нет





   Похожие торренты   Торрент   Размер 
В этой теме нет новых непрочитанных сообщений. Как Вас теперь называть?.. (1966) DVDRip от Youtracker

5 | 5

1.46 ГБ

В этой теме нет новых непрочитанных сообщений. Как Вас теперь называть?.. (1966) DVDRip от Youtracker

9 | 6

745.28 МБ

В этой теме нет новых непрочитанных сообщений. Три толстяка (1966) DVDRip от Youtracker

70 | 11

744.2 МБ

В этой теме нет новых непрочитанных сообщений. Туннель (1966) DVDRip от Youtracker

6 | 6

742.93 МБ

В этой теме нет новых непрочитанных сообщений. Три толстяка (1966) DVDRip-AVC от Youtracker

320 | 18

1.45 ГБ

В этой теме нет новых непрочитанных сообщений. Туннель (1966) DVDRip-AVC от Youtracker

6 | 2

743.51 МБ

В этой теме нет новых непрочитанных сообщений. Три толстяка (1966) DVDRip от Youtracker

16 | 11

1.45 ГБ




Вы не можете начинать темы
Вы не можете отвечать на сообщения
Вы не можете редактировать свои сообщения
Вы не можете удалять свои сообщения
Вы не можете добавлять вложения

Перейти:  
Для Мосгорсуда, Роскомнадзора и рекламодателей: mosgorsud-torrent[собачка]yandex.ru
 Вход
ppkBB3cker v.2 © 2008-2014 @ PPK
[ Time : 0.529s | 14 Queries | GZIP : Off ]

Торрент трекер RUTOR.IN, Не можете зайти на rutor.org? Какой новый адрес рутор? Какое зеркало рутор? Не работает rutor.org и зеркала? Тогда наш торрент специально для вас. Rutor.in неофициальное зеркало rutor. В случае если у Вас заблокирован rutor или вдруг Вы не можете на него зайти, то Вы без труда сможете скачать бесплатно и без рекламы последние новинки кино, игр, сериалов и прочего у нас, на Rutor.in. Не нужно использовать прокси, чтобы зайти на рутор, достаточно воспользоваться нашим ресурсом. Все новые фильмы, игры, сериалы, книги и музыка за 2013 и 2014 годы через торрент бесплатно. Скачивайте фильмы в хорошем качестве, игры для пк, xbox, playstation без регистрации. У нас вы найдете новые Зарубежные сериалы и Русские сериалы 2013, 2014, 2015 годов. Оставайтесь с нами, качайте любимые фильмы, игры, сериалы, книги и музыку.