img image001 image001 image001 image001 image001 image001 image001 image001 image001 image001 image001 image001 image001 image001 image001

Planets Sun Sun Sun
Статистика раздачи
Автор: Снежана | Размер: 1.46 ГБ | Добавлен: 24 июл 2013
Раздают: 8    Качают: 7
Скачать торрент
Скачать торрент
Описание торрента

СообщениеДобавлено: 24 июл 2013 

Павшим и живым воинам 3-й танковой
армии маршала Рыбалко посвящается



#77
Страна: СССР
Производство: Ленфильм
Жанр: военный, история
Год выпуска: 1968
Продолжительность: 01:25:00

Перевод: не требуется
Оригинальная аудиодорожка: русский
Cубтитры: нет

Режиссер: Виктор Трегубович

В ролях:
Михаил Кононов, Олег Борисов, Виктор Павлов, Фёдор Одиноков, Борис Табаровский, Михаил Глузский, Петр Любешкин, Валентин Зубков, Борис Аракелов, Герман Колушкин, Пётр Горин, Борис Сичкин, Юрий Дубровин, Ирина Замотина, Дмитрий Махнич, Владимир Карпенко, Владимир Маляр...

Описание:
Идет Великая Отечественная война. Наши войска освобождают Украину, правый берег Днепра. Младший лейтенант Александр Малешкин, свежеиспеченный выпускник военного училища, до этого насидевшийся в резерве, принимает под своё командование экипаж "самоходки" СУ-100. Все подчиненные Малешкина старше его по возрасту и намного опытнее. Авторитет молодого командира на каждом шагу подвергается испытаниям. Кроме того, Малешкиным очень недоволен командир батареи, он то и дело грозится снять нерасторопного новичка с командования. В экипаже Сан Саныча и впрямь постоянно случаются разные неприятности: то в машине обнаружится боевая граната с выпавшей чекой, то случится неисправность как раз в момент выхода полка на марш...





Исходник: DVD5 R5
Тип релиза: DVDRip
Контейнер: AVI

Видео: 720x304 (2.35:1), 25 fps, XviD ~ 1999 kbps avg, 0.365 bit/pixel
Аудио: 48 kHz, Dolby AC3 5.1, 448 kbps

Раздача от:
Общее
Полное имя : Na.vojne.kak.na.vojne.1968.DVDRip_[Youtracker]_by_AVP Studio.avi
Формат : AVI
Формат/Информация : Audio Video Interleave
Размер файла : 1,46 Гбайт
Продолжительность : 1 ч. 25 м.
Общий поток : 2456 Кбит/сек
Программа кодирования : VirtualDubModRus 1.5.10.2 (build 2542/release)
Библиотека кодирования : VirtualDubMod build 2542/release

Видео
Идентификатор : 0
Формат : MPEG-4 Visual
Профиль формата : Advanced Simple@L5
Параметр BVOP формата : 1
Параметр QPel формата : Нет
Параметр GMC формата : Без точки перехода
Параметр матрицы формата : Выборочная
Идентификатор кодека : XVID
Идентификатор кодека/Подсказка : XviD
Продолжительность : 1 ч. 25 м.
Битрейт : 1999 Кбит/сек
Ширина : 720 пикселей
Высота : 304 пикселя
Соотношение сторон : 2,35:1
Частота кадров : 25,000 кадров/сек
Цветовое пространство : YUV
Субдискретизация насыщенности : 4:2:0
Битовая глубина : 8 бит
Тип развёртки : Прогрессивная
Метод сжатия : С потерями
Бит/(Пиксели*Кадры) : 0.365
Размер потока : 1,19 Гбайт (81%)
Библиотека кодирования : XviD 65

Аудио
Идентификатор : 1
Формат : AC-3
Формат/Информация : Audio Coding 3
Расширение режима : CM (complete main)
Идентификатор кодека : 2000
Продолжительность : 1 ч. 24 м.
Вид битрейта : Постоянный
Битрейт : 448 Кбит/сек
Каналы : 6 каналов
Расположение каналов : Front: L C R, Side: L R, LFE
Частота : 48,0 КГц
Битовая глубина : 16 бит
Метод сжатия : С потерями
Размер потока : 272 Мбайт (18%)
Выравнивание : Разделение по промежуткам
Продолжительность промежутка : 40 мс. (1,00 видеокадр)
Время предзагрузки промежутка : 500 мс






   Похожие торренты   Торрент   Размер 
В этой теме нет новых непрочитанных сообщений. На войне как на войне (1968) DVDRip от Youtracker

25 | 9

744.61 МБ

В этой теме нет новых непрочитанных сообщений. На войне как на войне (1968) DVDRip-AVC от Youtracker

33 | 9

1.46 ГБ

В этой теме нет новых непрочитанных сообщений. На войне как на войне (1968) DVDRip-AVC от ExKinoRay

281 | 29

1.67 ГБ

В этой теме нет новых непрочитанных сообщений. На войне как на войне (1968) DVDRip от MediaClub | КПК

36 | 5

382.83 МБ

В этой теме нет новых непрочитанных сообщений. На войне, как на войне (1968) DVD5 by гаврила

74 | 7

3.99 ГБ

В этой теме нет новых непрочитанных сообщений. На войне как на войне (1969) DVDRip от Scarabey

154 | 19

1.45 ГБ

В этой теме нет новых непрочитанных сообщений. Первая чеченская: На войне, как на войне (1999) TVRip от tenow

2 | 6

207.2 МБ




Вы не можете начинать темы
Вы не можете отвечать на сообщения
Вы не можете редактировать свои сообщения
Вы не можете удалять свои сообщения
Вы не можете добавлять вложения

Перейти:  
Для Мосгорсуда, Роскомнадзора и рекламодателей: mosgorsud-torrent[собачка]yandex.ru
 Вход
ppkBB3cker v.2 © 2008-2014 @ PPK
[ Time : 1.024s | 14 Queries | GZIP : On ]

Торрент трекер RUTOR.IN, Не можете зайти на rutor.org? Какой новый адрес рутор? Какое зеркало рутор? Не работает rutor.org и зеркала? Тогда наш торрент специально для вас. Rutor.in неофициальное зеркало rutor. В случае если у Вас заблокирован rutor или вдруг Вы не можете на него зайти, то Вы без труда сможете скачать бесплатно и без рекламы последние новинки кино, игр, сериалов и прочего у нас, на Rutor.in. Не нужно использовать прокси, чтобы зайти на рутор, достаточно воспользоваться нашим ресурсом. Все новые фильмы, игры, сериалы, книги и музыка за 2013 и 2014 годы через торрент бесплатно. Скачивайте фильмы в хорошем качестве, игры для пк, xbox, playstation без регистрации. У нас вы найдете новые Зарубежные сериалы и Русские сериалы 2013, 2014, 2015 годов. Оставайтесь с нами, качайте любимые фильмы, игры, сериалы, книги и музыку.