img image001 image001 image001 image001 image001 image001 image001 image001 image001 image001 image001 image001 image001 image001 image001

Planets Sun Sun Sun
Статистика раздачи
Автор: Снежана | Размер: 2.44 ГБ | Добавлен: 24 июл 2013
Раздают: 38    Качают: 5
Скачать торрент
Скачать торрент
Описание торрента

СообщениеДобавлено: 24 июл 2013 

#77

Информация о фильме
Оригинальное название: 12 (Двенадцать)
Год выпуска: 2007
Жанр: Драма, триллер, детектив
Режиссер: Никита Михалков
В ролях: Сергей Маковецкий, Никита Михалков, Сергей Гармаш, Валентин Гафт, Алексей Петренко, Юрий Стоянов, Сергей Газаров, Михаил Ефремов, Алексей Горбунов, Сергей Арцибашев

О фильме: История о 12-ти присяжных, обсуждающих, виновен ли 18-летний юноша, обвиняемый в убийстве своего отчима — офицера Российской армии, воевавшего в Чечне.

Все улики свидетельствуют против обвиняемого, и одиннадцать из двенадцати человек, собравшихся в школьном спортзале, готовы осудить юношу. Но один из присяжных уверен, что все не так однозначно, как кажется на первый взгляд, и предлагает коллегам более вдумчиво рассмотреть дело.


Выпущено: Россия, Студия Тритэ
Продолжительность: 02:35:05
Перевод: Не требуется

Файл
Кодек: Н264
Качество: BDRip (AVC) (Blu-Ray (1080p))
Видео: MPEG-4 AVC, 1800 Кбит/с, 1024x436
Звук: AC3, 6 ch, 448 Кбит/с

Семпл

Общее
Уникальный идентификатор : 238147041737365448020275261727420727921 (0xB32973AEBAF5663A877AEDAC8BFC4271)
Полное имя : D:112.(Dvenadcaty).2007.x264.BDRip.(AVC).ExKinoRay.mkv
Формат : Matroska
Размер файла : 2,44 Гбайт
Продолжительность : 2 ч. 35 м.
Общий поток : 2249 Кбит/сек
Название фильма : 12.(Dvenadcaty).2007.x264.BDRip.(AVC).ExKinoRay
Дата кодирования : UTC 2013-05-30 17:14:36
Программа кодирования : mkvmerge v4.0.0 ('The Stars were mine') сборка от Jun 6 2010 16:18:42
Библиотека кодирования : libebml v1.0.0 + libmatroska v1.0.0

Видео
Идентификатор : 1
Формат : AVC
Формат/Информация : Advanced Video Codec
Профиль формата : High@L4.1
Параметр CABAC формата : Да
Параметр ReFrames формата : 8 кадров
Идентификатор кодека : V_MPEG4/ISO/AVC
Продолжительность : 2 ч. 35 м.
Битрейт : 1800 Кбит/сек
Ширина : 1024 пикс.
Высота : 436 пикс.
Соотношение сторон : 2,35:1
Частота кадров : 23,976 кадр/сек
Цветовое пространство : YUV
Подвыборка цветности : 4:2:0
Битовая глубина : 8 бит
Тип развёртки : Прогрессивная
Бит/(Пиксели*Кадры) : 0.168
Размер потока : 1,90 Гбайт (78%)
Заголовок : Rip by Enigma-Vladislav71
Библиотека кодирования : x264 core 129 r2245 bc13772
Настройки программы : cabac=1 / ref=8 / deblock=1:-2:-2 / analyse=0x3:0x133 / me=umh / subme=11 / psy=1 / psy_rd=1.00:0.00 / mixed_ref=1 / me_range=48 / chroma_me=1 / trellis=2 / 8x8dct=1 / cqm=0 / deadzone=21,11 / fast_pskip=0 / chroma_qp_offset=-2 / threads=3 / lookahead_threads=1 / sliced_threads=0 / nr=0 / decimate=0 / interlaced=0 / bluray_compat=0 / constrained_intra=0 / bframes=8 / b_pyramid=2 / b_adapt=2 / b_bias=0 / direct=3 / weightb=1 / open_gop=0 / weightp=2 / keyint=240 / keyint_min=23 / scenecut=40 / intra_refresh=0 / rc_lookahead=40 / rc=2pass / mbtree=1 / bitrate=1800 / ratetol=1.0 / qcomp=0.60 / qpmin=10 / qpmax=51 / qpstep=4 / cplxblur=20.0 / qblur=0.5 / ip_ratio=1.40 / aq=2:1.00
Язык : English

Аудио
Идентификатор : 2
Формат : AC-3
Формат/Информация : Audio Coding 3
Расширение режима : CM (complete main)
Идентификатор кодека : A_AC3
Продолжительность : 2 ч. 35 м.
Вид битрейта : Постоянный
Битрейт : 448 Кбит/сек
Каналы : 6 каналов
Расположение каналов : Front: L C R, Side: L R, LFE
Частота : 48,0 КГц
Битовая глубина : 16 бит
Метод сжатия : С потерями
Размер потока : 497 Мбайт (20%)
Язык : Russian




Релиз от:

Авторы релиза:



   Похожие торренты   Торрент   Размер 
В этой теме нет новых непрочитанных сообщений. 12 / Двенадцать (2007) BDRip by NB

11 | 1

2.18 ГБ

В этой теме нет новых непрочитанных сообщений. 12 / Двенадцать (2007) BDRip от HQ-ViDEO

14 | 2

2.9 ГБ

В этой теме нет новых непрочитанных сообщений. 12 / Двенадцать (2007) BDRip от HELLYWOOD

23 | 2

2.9 ГБ

В этой теме нет новых непрочитанных сообщений. 12 / Двенадцать (2007) BDRip от HQCLUB

11 | 3

2.91 ГБ

В этой теме нет новых непрочитанных сообщений. 12 / Двенадцать (2007) BDRip 720p от HQ-ViDEO

199 | 32

6.49 ГБ

В этой теме нет новых непрочитанных сообщений. 12 / Двенадцать (2007) BDRip 720p от Leonardo and Scarabey

471 | 14

4.35 ГБ

В этой теме нет новых непрочитанных сообщений. Двадцать двенадцать / Две тысячи двенадцать / Twenty Twelve [S01] (2011) SATRip | L1

1 | 2

1.39 ГБ




Вы не можете начинать темы
Вы не можете отвечать на сообщения
Вы не можете редактировать свои сообщения
Вы не можете удалять свои сообщения
Вы не можете добавлять вложения

Перейти:  
Для Мосгорсуда, Роскомнадзора и рекламодателей: mosgorsud-torrent[собачка]yandex.ru
 Вход
ppkBB3cker v.2 © 2008-2014 @ PPK
[ Time : 0.031s | 18 Queries | GZIP : Off ]

cron