img image001 image001 image001 image001 image001 image001 image001 image001 image001 image001 image001 image001 image001 image001 image001

Planets Sun Sun Sun
Статистика раздачи
Автор: Снежана | Размер: 744.73 МБ | Добавлен: 24 июл 2013
Раздают: 52    Качают: 5
Скачать торрент
Скачать торрент
Описание торрента

СообщениеДобавлено: 24 июл 2013 

#77

Страна: СССР
Жанр: мелодрама, комедия
Год выпуска: 1966

Продолжительность: 01:32:24


Перевод: Не требуется

Режиссер: Эльдар Рязанов

В ролях:
Иннокентий Смоктуновский (Юрий Иванович Деточкин), Олег Ефремов (следователь Максим Подберёзовиков), Любовь Добржанская (мама Деточкина), Анатолий Папанов (Сокол-Кружин, тесть Семицветова), Ольга Аросева (Люба), Андрей Миронов (Дима Семицветов), Георгий Жжёнов (милиционер), Евгений Евстигнеев (режиссёр самодеятельности), Донатас Банионис (пастор-покупатель), Любовь Соколова (судья), Вячеслав Невинный (автослесарь), Готлиб Ронинсон (Яков Михайлович Квочкин, начальник Деточкина)


Описание: Эта удивительная история вполне может считаться фантастической. Скромный и застенчивый страховой агент, актер самодеятельного театра Юрий Деточкин оказывается непримиримым борцом за справедливость.
Правда, для правосудия, представляемого актером того же театра, а в миру - следователем Подберезовиковым, этот Робин Гуд представляется опасным, хитроумным, изобретательным и неуловимым преступником...






Качество: HDRip | sample
Контейнер: AVI
Исходник: BDRip 1080
Видео: XviD, 720x528 (4:3), 989 kbps, 23,976 fps, 0,109 bpp
Аудио: MP3 / 2.0 / 48 kHz / 128 kbps /



General
Complete name : D:Beregis.avtomobilya.1966.HDRip745.[Youtracker].by.Дядя_Лёша.avi
Format : AVI
Format/Info : Audio Video Interleave
File size : 745 MiB
Duration : 1h 32mn
Overall bit rate : 1 127 Kbps
Movie name : Beregis.avtomobilya.1966.HDRip745.[Youtracker].by.Дядя_Лёша
Director : Дядя_Лёша
Writing application : VirtualDubMod 1.5.10.3 | www.virtualdub-fr.org || (build 2550/release)
Copyright : Youtracker

Video
ID : 0
Format : MPEG-4 Visual
Format profile : Advanced Simple@L5
Format settings, BVOP : 2
Format settings, QPel : No
Format settings, GMC : No warppoints
Format settings, Matrix : Custom
Codec ID : XVID
Codec ID/Hint : XviD
Duration : 1h 32mn
Bit rate : 989 Kbps
Width : 720 pixels
Height : 528 pixels
Display aspect ratio : 4:3
Frame rate : 23.976 fps
Color space : YUV
Chroma subsampling : 4:2:0
Bit depth : 8 bits
Scan type : Progressive
Compression mode : Lossy
Bits/(Pixel*Frame) : 0.109
Stream size : 654 MiB (88%)
Writing library : XviD 73

Audio
ID : 1
Format : MPEG Audio
Format version : Version 1
Format profile : Layer 3
Mode : Joint stereo
Mode extension : MS Stereo
Codec ID : 55
Codec ID/Hint : MP3
Duration : 1h 32mn
Bit rate mode : Constant
Bit rate : 128 Kbps
Channel(s) : 2 channels
Sampling rate : 48.0 KHz
Compression mode : Lossy
Stream size : 84.6 MiB (11%)
Alignment : Aligned on interleaves
Interleave, duration : 42 ms (1.00 video frame)
Interleave, preload duration : 504 ms
Writing library : LAME3.99r
Encoding settings : -m j -V 4 -q 2 -lowpass 17 -b 128


Раздача от:



   Похожие торренты   Торрент   Размер 
В этой теме нет новых непрочитанных сообщений. Берегись автомобиля (1966) HDRip от Youtracker

99 | 5

1.45 ГБ

В этой теме нет новых непрочитанных сообщений. Берегись автомобиля (1966) DVDRip от Youtracker | Реставрация

665 | 29

1.46 ГБ

В этой теме нет новых непрочитанных сообщений. Берегись автомобиля (1966) DVD 9 | Реставрация

3 | 4

7.7 ГБ

В этой теме нет новых непрочитанных сообщений. Берегись автомобиля (1966) DVDRip

244 | 11

1.37 ГБ

В этой теме нет новых непрочитанных сообщений. Берегись автомобиля (1966) BDRip от HQCLUB

524 | 40

1.45 ГБ

В этой теме нет новых непрочитанных сообщений. Берегись автомобиля (1966) BDRip-AVC от FREEISLAND

2 | 4

1.73 ГБ

В этой теме нет новых непрочитанных сообщений. Берегись автомобиля (1966) DVDRip-AVC | Реставрация

177 | 6

1.09 ГБ




Вы не можете начинать темы
Вы не можете отвечать на сообщения
Вы не можете редактировать свои сообщения
Вы не можете удалять свои сообщения
Вы не можете добавлять вложения

Перейти:  
Для Мосгорсуда, Роскомнадзора и рекламодателей: mosgorsud-torrent[собачка]yandex.ru
 Вход
ppkBB3cker v.2 © 2008-2014 @ PPK
[ Time : 0.023s | 14 Queries | GZIP : Off ]

Торрент трекер RUTOR.IN, Не можете зайти на rutor.org? Какой новый адрес рутор? Какое зеркало рутор? Не работает rutor.org и зеркала? Тогда наш торрент специально для вас. Rutor.in неофициальное зеркало rutor. В случае если у Вас заблокирован rutor или вдруг Вы не можете на него зайти, то Вы без труда сможете скачать бесплатно и без рекламы последние новинки кино, игр, сериалов и прочего у нас, на Rutor.in. Не нужно использовать прокси, чтобы зайти на рутор, достаточно воспользоваться нашим ресурсом. Все новые фильмы, игры, сериалы, книги и музыка за 2013 и 2014 годы через торрент бесплатно. Скачивайте фильмы в хорошем качестве, игры для пк, xbox, playstation без регистрации. У нас вы найдете новые Зарубежные сериалы и Русские сериалы 2013, 2014, 2015 годов. Оставайтесь с нами, качайте любимые фильмы, игры, сериалы, книги и музыку.