img image001 image001 image001 image001 image001 image001 image001 image001 image001 image001 image001 image001 image001 image001 image001

Planets Sun Sun Sun
Статистика раздачи
Автор: Снежана | Размер: 744.65 МБ | Добавлен: 24 июл 2013
Раздают: 23    Качают: 14
Скачать торрент
Скачать торрент
Описание торрента

СообщениеДобавлено: 24 июл 2013 

#77
Страна: СССР
Производство: Мосфильм
Жанр: драма, комедия, военный
Год выпуска: 1968
Продолжительность: 01:33:00

Перевод: не требуется
Оригинальная аудиодорожка: русский
Cубтитры: нет

Режиссер: Евгений Карелов

В ролях:
Олег Янковский, Ролан Быков, Владимир Высоцкий, Ия Саввина, Анатолий Папанов, Николай Крючков, Петр Крылов, Б. Силантьев, Николай Бурляев, Алла Демидова, Ростислав Янковский, Роман Ткачук, Николай Дупак, Валентина Березуцкая, Юозас Будрайтис, Николай Парфёнов, Вениамин Смехов, Юрий Кузьменков, Татьяна Иваненко, Валентина Сперантова, Евгений Марков...

Описание:
Главные персонажи этой истории времен гражданской войны — красноармеец Некрасов, по приказу ставший фронтовым кинооператором, и его помощник Карякин, бывший командир роты, бдительно опекающий беспомощного и, по его мнению, не вполне надежного «фотографа». В конце концов отчаянный спорщик Карякин полюбит фронтового товарища — да только от вражеской пули не сможет уберечь…





Исходник: DVD5 R5
Тип релиза: DVDRip
Контейнер: AVI

Видео: 720x304 (2.35:1), 25 fps, XviD ~ 982 kbps avg, 0.179 bit/pixel
Аудио: 48 kHz, MP3 2.0, 128 kbps

Раздача от:
Общее
Полное имя : Sluzhili.dva.tovarishha.1968.DVDRip-745_[Youtracker]_by_AVP Studio.avi
Формат : AVI
Формат/Информация : Audio Video Interleave
Размер файла : 745 Мбайт
Продолжительность : 1 ч. 33 м.
Общий поток : 1119 Кбит/сек
Программа кодирования : VirtualDubModRus 1.5.10.2 (build 2542/release)
Библиотека кодирования : VirtualDubMod build 2542/release

Видео
Идентификатор : 0
Формат : MPEG-4 Visual
Профиль формата : Advanced Simple@L5
Параметр BVOP формата : 1
Параметр QPel формата : Нет
Параметр GMC формата : Без точки перехода
Параметр матрицы формата : Выборочная
Идентификатор кодека : XVID
Идентификатор кодека/Подсказка : XviD
Продолжительность : 1 ч. 33 м.
Битрейт : 982 Кбит/сек
Ширина : 720 пикселей
Высота : 304 пикселя
Соотношение сторон : 2,35:1
Частота кадров : 25,000 кадров/сек
Цветовое пространство : YUV
Субдискретизация насыщенности : 4:2:0
Битовая глубина : 8 бит
Тип развёртки : Прогрессивная
Метод сжатия : С потерями
Бит/(Пиксели*Кадры) : 0.179
Размер потока : 653 Мбайт (88%)
Библиотека кодирования : XviD 65

Аудио
Идентификатор : 1
Формат : MPEG Audio
Версия формата : Version 1
Профиль формата : Layer 3
Идентификатор кодека : 55
Идентификатор кодека/Подсказка : MP3
Продолжительность : 1 ч. 32 м.
Вид битрейта : Постоянный
Битрейт : 128 Кбит/сек
Каналы : 2 канала
Частота : 48,0 КГц
Метод сжатия : С потерями
Размер потока : 85,1 Мбайт (11%)
Выравнивание : Соединение по промежуткам
Продолжительность промежутка : 40 мс. (1,00 видеокадр)
Время предзагрузки промежутка : 504 мс.
Библиотека кодирования : L3.99r
Настройки программы : -m s -V 4 -q 2 -lowpass 17 -b 128





   Похожие торренты   Торрент   Размер 
В этой теме нет новых непрочитанных сообщений. Служили два товарища (1968) DVDRip-AVC от Youtracker

187 | 8

1.46 ГБ

В этой теме нет новых непрочитанных сообщений. Служили два товарища (1968) DVDRip | Реставрация

419 | 42

1.46 ГБ

В этой теме нет новых непрочитанных сообщений. Служили два товарища / Офицеры (1968/1971) DVD5 от Русфильм

30 | 7

4.35 ГБ

В этой теме нет новых непрочитанных сообщений. Жуков и Рокоссовский. Служили два товарища (2015) SATRip от Generalfilm

588 | 17

485.34 МБ

В этой теме нет новых непрочитанных сообщений. Разведчики (1968) DVDRip от Youtracker

52 | 6

744.18 МБ

В этой теме нет новых непрочитанных сообщений. Разведчики (1968) DVDRip-AVC от Youtracker

59 | 9

744.15 МБ

В этой теме нет новых непрочитанных сообщений. Трембита (1968) DVDRip-AVC от Youtracker

14 | 4

743.84 МБ




Вы не можете начинать темы
Вы не можете отвечать на сообщения
Вы не можете редактировать свои сообщения
Вы не можете удалять свои сообщения
Вы не можете добавлять вложения

Перейти:  
Для Мосгорсуда, Роскомнадзора и рекламодателей: mosgorsud-torrent[собачка]yandex.ru
 Вход
ppkBB3cker v.2 © 2008-2014 @ PPK
[ Time : 0.041s | 14 Queries | GZIP : Off ]

Торрент трекер RUTOR.IN, Не можете зайти на rutor.org? Какой новый адрес рутор? Какое зеркало рутор? Не работает rutor.org и зеркала? Тогда наш торрент специально для вас. Rutor.in неофициальное зеркало rutor. В случае если у Вас заблокирован rutor или вдруг Вы не можете на него зайти, то Вы без труда сможете скачать бесплатно и без рекламы последние новинки кино, игр, сериалов и прочего у нас, на Rutor.in. Не нужно использовать прокси, чтобы зайти на рутор, достаточно воспользоваться нашим ресурсом. Все новые фильмы, игры, сериалы, книги и музыка за 2013 и 2014 годы через торрент бесплатно. Скачивайте фильмы в хорошем качестве, игры для пк, xbox, playstation без регистрации. У нас вы найдете новые Зарубежные сериалы и Русские сериалы 2013, 2014, 2015 годов. Оставайтесь с нами, качайте любимые фильмы, игры, сериалы, книги и музыку.