img image001 image001 image001 image001 image001 image001 image001 image001 image001 image001 image001 image001 image001 image001 image001

Planets Sun Sun Sun
Статистика раздачи
Автор: Снежана | Размер: 2.04 ГБ | Добавлен: 24 июл 2013
Раздают: 19    Качают: 2
Скачать торрент
Скачать торрент
Описание торрента

СообщениеДобавлено: 24 июл 2013 

#77

Информация о фильме
Оригинальное название: В тумане
Год выпуска: 2012
Жанр: Драма, военный, история
Режиссер: Сергей Лозница
В ролях: Владимир Свирский, Владислав Абашин, Сергей Колесов, Никита Перемотов, Юлия Пересильд, Кирилл Петров, Дмитрий Колосов, Степан Богданов, Дмитрий Быковский, Влад Иванов, Игорь Хрипунов, Надежда Маркина, Борис Каморзин, Михаил Евланов, Сергей Русскин, Тимофей Трибунцев

О фильме: Действие исторической драмы происходит в 1942 году в оккупированной немцами Белоруссии. Путевого обходчика Сущеню ложно обвиняют в сотрудничестве с оккупантами. Два партизана приезжают на хутор к Сущене, чтобы совершить расправу. В надежде доказать свою невиновность Сущеня пытается сделать моральный выбор в аморальных обстоятельствах.



Страна: Россия, Германия, Нидерланды, Латвия, Беларусь
Студия: Belarusfilm, GP Cinema Company, Lemming Film
Продолжительность: 02:02:55

Файл
Качество: DVDRip (AVC)
Видео: MPEG-4 AVC, 1935 Кбит/c, 720x436@1024x436, 25.000 кадр/c
Звук: Русский (АС3, 6 ch, 448 Кбит/c)

Семпл




x264 [info]: frame I:770 Avg QP:17.88 size: 60460
x264 [info]: frame P:39845 Avg QP:20.86 size: 21891
x264 [info]: frame B:143770 Avg QP:22.47 size: 5995
___________________________________________________________________
Общее
Уникальный идентификатор : 170502709732084900218380444107354870526 (0x8045A09F11F90F9884EB18A50D6F12FE)
Полное имя : D:Mои раздачиV.tumane.2012.DVDRip.(AVC)-MediaClub.mkv
Формат : Matroska
Версия формата : Version 2
Размер файла : 2,04 Гбайт
Продолжительность : 2 ч. 2 м.
Общий поток : 2381 Кбит/сек
Название фильма : В тумане (MediaClub-kaspr)
Дата кодирования : UTC 2013-05-31 10:40:52
Программа кодирования : mkvmerge v5.7.0 ('The Whirlwind') built on Aug 7 2012 14:11:40
Библиотека кодирования : libebml v1.2.3 + libmatroska v1.3.0

Видео
Идентификатор : 1
Формат : AVC
Формат/Информация : Advanced Video Codec
Профиль формата : High@L4.1
Параметр CABAC формата : Да
Параметр ReFrames формата : 10 кадров
Идентификатор кодека : V_MPEG4/ISO/AVC
Продолжительность : 2 ч. 2 м.
Битрейт : 1935 Кбит/сек
Ширина : 720 пикселей
Высота : 436 пикселей
Соотношение сторон : 2,35:1
Режим частоты кадров : Постоянный
Частота кадров : 25,000 кадров/сек
Цветовое пространство : YUV
Субдискретизация насыщенности : 4:2:0
Битовая глубина : 8 бит
Тип развёртки : Прогрессивная
Бит/(Пиксели*Кадры) : 0.247
Размер потока : 1,62 Гбайт (79%)
Заголовок : В тумане (MediaClub-kaspr)
Библиотека кодирования : x264 core 130 r2273 b3065e6
Настройки программы : cabac=1 / ref=10 / deblock=1:-3:-3 / analyse=0x3:0x133 / me=umh / subme=10 / psy=1 / psy_rd=1.00:0.00 / mixed_ref=1 / me_range=32 / chroma_me=1 / trellis=2 / 8x8dct=1 / cqm=0 / deadzone=21,11 / fast_pskip=0 / chroma_qp_offset=-2 / threads=12 / lookahead_threads=2 / sliced_threads=0 / nr=0 / decimate=0 / interlaced=0 / bluray_compat=0 / constrained_intra=0 / bframes=8 / b_pyramid=2 / b_adapt=2 / b_bias=0 / direct=3 / weightb=1 / open_gop=0 / weightp=2 / keyint=250 / keyint_min=25 / scenecut=40 / intra_refresh=0 / rc=2pass / mbtree=0 / bitrate=1935 / ratetol=1.0 / qcomp=0.60 / qpmin=0 / qpmax=69 / qpstep=4 / cplxblur=20.0 / qblur=0.5 / ip_ratio=1.40 / pb_ratio=1.30 / aq=1:1.00
Default : Да
Forced : Нет

Аудио
Идентификатор : 2
Формат : AC-3
Формат/Информация : Audio Coding 3
Расширение режима : CM (complete main)
Параметр Endianness формата : Big
Идентификатор кодека : A_AC3
Продолжительность : 2 ч. 2 м.
Вид битрейта : Постоянный
Битрейт : 448 Кбит/сек
Каналы : 6 каналов
Расположение каналов : Front: L C R, Side: L R, LFE
Частота : 48,0 КГц
Битовая глубина : 16 бит
Метод сжатия : С потерями
Размер потока : 394 Мбайт (19%)
Язык : Russian
Default : Да
Forced : Нет

Меню
00:00:00.000 : en:Chapter 01
00:08:16.160 : en:Chapter 02
00:13:18.560 : en:Chapter 03
00:19:48.800 : en:Chapter 04
00:26:44.000 : en:Chapter 05
00:32:12.320 : en:Chapter 06
00:37:15.120 : en:Chapter 07
00:46:26.280 : en:Chapter 08
00:54:04.200 : en:Chapter 09
01:03:15.720 : en:Chapter 10
01:09:00.480 : en:Chapter 11
01:14:41.880 : en:Chapter 12
01:20:38.040 : en:Chapter 13
01:28:35.040 : en:Chapter 14
01:38:24.680 : en:Chapter 15
01:44:51.400 : en:Chapter 16
01:52:55.920 : en:Chapter 17
02:00:12.680 : en:Chapter 18


Релиз от:



   Похожие торренты   Торрент   Размер 
В этой теме нет новых непрочитанных сообщений. Затерянные в тумане / В тумане / Fogbound (2002) DVDRip от FilmRus | P2

131 | 24

1.37 ГБ

В этой теме нет новых непрочитанных сообщений. В тумане (2012) DVDRip

38 | 5

1.46 ГБ

В этой теме нет новых непрочитанных сообщений. В тумане (2012) DVDRip

61 | 4

2.19 ГБ

В этой теме нет новых непрочитанных сообщений. В тумане (2012) DVDRip от Scarabey

9 | 5

780.27 МБ

В этой теме нет новых непрочитанных сообщений. В тумане (2012) DVDRip от Scarabey

31 | 5

2.17 ГБ

В этой теме нет новых непрочитанных сообщений. В тумане (2012) DVDRip от Scarabey

23 | 5

1.45 ГБ

В этой теме нет новых непрочитанных сообщений. В тумане (2012) DVDRip-AVC от potroks | Лицензия

14 | 2

2.58 ГБ




Вы не можете начинать темы
Вы не можете отвечать на сообщения
Вы не можете редактировать свои сообщения
Вы не можете удалять свои сообщения
Вы не можете добавлять вложения

Перейти:  
Для Мосгорсуда, Роскомнадзора и рекламодателей: mosgorsud-torrent[собачка]yandex.ru
 Вход
ppkBB3cker v.2 © 2008-2014 @ PPK
[ Time : 0.576s | 15 Queries | GZIP : On ]

Торрент трекер RUTOR.IN, Не можете зайти на rutor.org? Какой новый адрес рутор? Какое зеркало рутор? Не работает rutor.org и зеркала? Тогда наш торрент специально для вас. Rutor.in неофициальное зеркало rutor. В случае если у Вас заблокирован rutor или вдруг Вы не можете на него зайти, то Вы без труда сможете скачать бесплатно и без рекламы последние новинки кино, игр, сериалов и прочего у нас, на Rutor.in. Не нужно использовать прокси, чтобы зайти на рутор, достаточно воспользоваться нашим ресурсом. Все новые фильмы, игры, сериалы, книги и музыка за 2013 и 2014 годы через торрент бесплатно. Скачивайте фильмы в хорошем качестве, игры для пк, xbox, playstation без регистрации. У нас вы найдете новые Зарубежные сериалы и Русские сериалы 2013, 2014, 2015 годов. Оставайтесь с нами, качайте любимые фильмы, игры, сериалы, книги и музыку.