img image001 image001 image001 image001 image001 image001 image001 image001 image001 image001 image001 image001 image001 image001 image001

Planets Sun Sun Sun
Статистика раздачи
Автор: Снежана | Размер: 2.72 ГБ | Добавлен: 24 июл 2013
Раздают: 18    Качают: 15
Скачать торрент
Скачать торрент
Описание торрента

СообщениеДобавлено: 24 июл 2013 

#77

Информация о фильме
Оригинальное название: Шхера-18
Год выпуска: 2011
Жанр: Боевик, криминал
Выпущено: Россия, Триикс Медиа
Режиссер: Николай Дрейден
В ролях: Тимур Ефременков, Михаил Разумовский, Данила Козловский, Елена Николаева (II), Владимир Шагин, Алексей Фокин, Анна Астраханцева, Сергей Русскин, Федор Лавров, Александр Завьялов, Евгений Иванов, Карина Миронова, Вячеслав Гумеров, Александр Павельев

Описание: Ветеран отряда спецназа Евгений Сорматов едет на живописное озеро в Карелии. С собой он везет последнее письмо товарища — Андрея Егорова, погибшего несколько лет назад, и орден Героя России, которым того наградили посмертно. Там, в тихом уголке на одной из шхер, в рыбачьем безлюдном поселке живут отец и сестра Андрея. Сорматов находит обветшалую гостиницу, сторожем которой и оказывается отец Егорова. Евгений рассказывает родным товарища про героическую гибель Андрея, передает им письмо и звезду, после чего немедленно собирается в обратную дорогу, но неожиданно начинается жуткий шторм. Выбора нет: Евгений возвращается на шхеру. А тем временем сестра Егорова Татьяна находит среди вещей постояльцев коробки с оружием. Вскоре все трое становятся заложниками преступников-контрабандистов. Теперь бывшему спецназовцу придется вспомнить о своем боевом прошлом…

Качество: DVB
Видео: MPEG-2, 4157 Кбит/с, 720x576@768x576
Аудио: MP2, 2 ch, 192 Кбит/с
Продолжительность: 01:27:47
Язык: Русский
Complete name : G:Шхера-18_DVB_by_CLIPMAN.mpg
Format : MPEG-PS
File size : 2.72 GiB
Duration : 1h 27mn
Overall bit rate : 4 437 Kbps

Video
ID : 224 (0xE0)
Format : MPEG Video
Format version : Version 2
Format profile : Main@Main
Format settings, BVOP : No
Format settings, Matrix : Default
Format settings, GOP : M=1, N=29
Duration : 1h 27mn
Bit rate mode : Variable
Bit rate : 4 157 Kbps
Nominal bit rate : 15.0 Mbps
Width : 720 pixels
Height : 576 pixels
Display aspect ratio : 4:3
Frame rate : 25.000 fps
Standard : PAL
Color space : YUV
Chroma subsampling : 4:2:0
Bit depth : 8 bits
Scan type : Interlaced
Scan order : Top Field First
Bits/(Pixel*Frame) : 0.401
Stream size : 2.55 GiB (94%)

Audio
ID : 192 (0xC0)
Format : MPEG Audio
Format version : Version 1
Format profile : Layer 2
Duration : 1h 27mn
Bit rate mode : Constant
Bit rate : 192 Kbps
Channel(s) : 2 channels
Sampling rate : 48.0 KHz
Stream size : 121 MiB (4%)





   Похожие торренты   Торрент   Размер 
В этой теме нет новых непрочитанных сообщений. Шхера-18 (2011) DVDRip

17 | 8

699.99 МБ

В этой теме нет новых непрочитанных сообщений. Шхера-18 (2011) SATRip

7 | 9

1006.75 МБ

В этой теме нет новых непрочитанных сообщений. Шхера-18 (2011) DVD5

5 | 3

4.33 ГБ

В этой теме нет новых непрочитанных сообщений. Шхера-18 (2011) DVDRip | Лицензия

57 | 13

1.37 ГБ

В этой теме нет новых непрочитанных сообщений. Радио Маяк - Ранеты [14.01.2011 - 10.06.2011] [17.10.2011 - 27.01.2012] (2011) MP3

0 | 24

18.68 ГБ

В этой теме нет новых непрочитанных сообщений. Гонка Чемпионов 2011 Кубок наций+Личный зачёт / Race of Champions 2011 (2011) SATRip

0 | 2

3.86 ГБ

В этой теме нет новых непрочитанных сообщений. Формула 1. Сезон 2011. Этап 8 из 19. Гран-При Европы 2011. Квалификация (2011) SATRip от tenow

0 | 2

1.01 ГБ




Вы не можете начинать темы
Вы не можете отвечать на сообщения
Вы не можете редактировать свои сообщения
Вы не можете удалять свои сообщения
Вы не можете добавлять вложения

Перейти:  
Для Мосгорсуда, Роскомнадзора и рекламодателей: mosgorsud-torrent[собачка]yandex.ru
 Вход
ppkBB3cker v.2 © 2008-2014 @ PPK
[ Time : 0.051s | 15 Queries | GZIP : Off ]

Торрент трекер RUTOR.IN, Не можете зайти на rutor.org? Какой новый адрес рутор? Какое зеркало рутор? Не работает rutor.org и зеркала? Тогда наш торрент специально для вас. Rutor.in неофициальное зеркало rutor. В случае если у Вас заблокирован rutor или вдруг Вы не можете на него зайти, то Вы без труда сможете скачать бесплатно и без рекламы последние новинки кино, игр, сериалов и прочего у нас, на Rutor.in. Не нужно использовать прокси, чтобы зайти на рутор, достаточно воспользоваться нашим ресурсом. Все новые фильмы, игры, сериалы, книги и музыка за 2013 и 2014 годы через торрент бесплатно. Скачивайте фильмы в хорошем качестве, игры для пк, xbox, playstation без регистрации. У нас вы найдете новые Зарубежные сериалы и Русские сериалы 2013, 2014, 2015 годов. Оставайтесь с нами, качайте любимые фильмы, игры, сериалы, книги и музыку.
cron