img image001 image001 image001 image001 image001 image001 image001 image001 image001 image001 image001 image001 image001 image001 image001

Planets Sun Sun Sun
Статистика раздачи
Автор: Снежана | Размер: 2.02 ГБ | Добавлен: 24 июл 2013
Раздают: 2    Качают: 3
Скачать торрент
Скачать торрент
Описание торрента

СообщениеДобавлено: 24 июл 2013 

Оригинальное название: Шуб - Баба Люба!
Год выпуска: 2000
Жанр: Комедия
Выпущено: Россия, Кинокомпания "WSB"
Режиссер: Максим Воронков
В ролях: Виктор Степанов, Лариса Удовиченко, Петр Ульянов, Сергей Баталов, Татьяна Кравченко, Маша Удовиченко, Илья Рутберг, Елена Бушуева, Виктор Борцов

Описание: К старшекласснику Володе Сидорову приезжает из Надыма любимый дед Егор Кузьмич и привозит в подарок кристалл размером с голову младенца. Внук и дед относят кристалл в скупку и запрашивают за него триста. И им отваливают триста...



Качество: DVB
Видео: MPEG-2, ~ 3400 Кбит/с, 720x576@768x576
Аудио: MP2, 2 ch, 192 Кбит/с
Продолжительность: 01:19:24
Язык: Русский
General
Complete name : C:Шуб – баба Люба!_2000_DVB.mpg
Format : MPEG-PS
File size : 2.02 GiB
Duration : 1h 19mn
Overall bit rate mode : Variable
Overall bit rate : 3 648 Kbps

Video
ID : 224 (0xE0)
Format : MPEG Video
Format version : Version 2
Format profile : Main@Main
Format settings, BVOP : Yes
Format settings, Matrix : Custom
Format settings, GOP : M=3, N=12
Duration : 1h 19mn
Bit rate mode : Variable
Bit rate : 3 384 Kbps
Maximum bit rate : 15.0 Mbps
Width : 720 pixels
Height : 576 pixels
Display aspect ratio : 4:3
Frame rate : 25.000 fps
Standard : PAL
Color space : YUV
Chroma subsampling : 4:2:0
Bit depth : 8 bits
Scan type : Interlaced
Scan order : Top Field First
Compression mode : Lossy
Bits/(Pixel*Frame) : 0.326
Time code of first frame : 00:00:00:00
Time code source : Group of pictures header
Stream size : 1.88 GiB (93%)

Audio
ID : 192 (0xC0)
Format : MPEG Audio
Format version : Version 1
Format profile : Layer 2
Duration : 1h 19mn
Bit rate mode : Constant
Bit rate : 192 Kbps
Channel(s) : 2 channels
Sampling rate : 48.0 KHz
Compression mode : Lossy
Stream size : 109 MiB (5%)






   Похожие торренты   Торрент   Размер 
В этой теме нет новых непрочитанных сообщений. Шуб–баба Люба! (2000) SATRip от New-Team

13 | 3

1.1 ГБ

В этой теме нет новых непрочитанных сообщений. Люба. Любовь [01-04] (2011) DVB

152 | 9

6.92 ГБ

В этой теме нет новых непрочитанных сообщений. Люба. Любовь [01-04] (2011) SATRip

61 | 20

1.95 ГБ

В этой теме нет новых непрочитанных сообщений. Люба. Любовь [01] (2011) IPTVRip

6 | 2

727.3 МБ

В этой теме нет новых непрочитанных сообщений. Люба. Любовь [02] (2011) IPTVRip

0 | 2

718.78 МБ

В этой теме нет новых непрочитанных сообщений. Мама Люба [01-04 из 04] (2014) SATRip by simkanetua

594 | 95

2.34 ГБ

В этой теме нет новых непрочитанных сообщений. Мама Люба [01-04 из 04] (2014) WEB-DLRip от ExKinoRay

769 | 154

2.73 ГБ




Вы не можете начинать темы
Вы не можете отвечать на сообщения
Вы не можете редактировать свои сообщения
Вы не можете удалять свои сообщения
Вы не можете добавлять вложения

Перейти:  
Для Мосгорсуда, Роскомнадзора и рекламодателей: mosgorsud-torrent[собачка]yandex.ru
 Вход
ppkBB3cker v.2 © 2008-2014 @ PPK
[ Time : 0.076s | 14 Queries | GZIP : Off ]

Торрент трекер RUTOR.IN, Не можете зайти на rutor.org? Какой новый адрес рутор? Какое зеркало рутор? Не работает rutor.org и зеркала? Тогда наш торрент специально для вас. Rutor.in неофициальное зеркало rutor. В случае если у Вас заблокирован rutor или вдруг Вы не можете на него зайти, то Вы без труда сможете скачать бесплатно и без рекламы последние новинки кино, игр, сериалов и прочего у нас, на Rutor.in. Не нужно использовать прокси, чтобы зайти на рутор, достаточно воспользоваться нашим ресурсом. Все новые фильмы, игры, сериалы, книги и музыка за 2013 и 2014 годы через торрент бесплатно. Скачивайте фильмы в хорошем качестве, игры для пк, xbox, playstation без регистрации. У нас вы найдете новые Зарубежные сериалы и Русские сериалы 2013, 2014, 2015 годов. Оставайтесь с нами, качайте любимые фильмы, игры, сериалы, книги и музыку.