img image001 image001 image001 image001 image001 image001 image001 image001 image001 image001 image001 image001 image001 image001 image001

Planets Sun Sun Sun
Статистика раздачи
Автор: Снежана | Размер: 1.52 ГБ | Добавлен: 24 июл 2013
Раздают: 115    Качают: 4
Скачать торрент
Скачать торрент
Описание торрента

СообщениеДобавлено: 24 июл 2013 


Инфомация о фильме
Оригинальное название: Звезда
Год выхода: 2002
Жанр: Боевик, драма, приключения, военный, история
Режиссер: Николай Лебедев
В ролях: Игорь Петренко, Артем Семакин, Алексей Панин, Алексей Кравченко, Анатолий Гущин, Амаду Мамадаков, Юрий Лагута, Екатерина Вуличенко, Андрей Егоров, Сергей Миллер.
О фильме
Лето 1944 года, Красная Армия ведет бои на подступах к западной границе СССР. В тыл врага отправляется группа разведчиков, молодых ребят. Их позывные — «Звезда». Они должны выполнить задание, от которого зависит судьба фронта.
И они выполняют его, но цена этого задания оказывается слишком дорогой. Полный напряжения и драматизма, фильм заставляет вспомнить, кто победил в этой войне.


Страна: Россия
Студия: Мосфильм, АРК-Фильм
Продолжительность: 01:37:13
Перевод: Не требуется
Файл
Формат: MKV
Качество: DVDRip-AVC
Видео: MPEG4 AVC 1024 x 608, 23.976 fps, 1750 - 2200 Кбит/сек
Звук: AC-3, 6 ch, 448 Кб/сек
Субтитры: Нет

General
Unique ID : 233066980912318910369286148464379442933 (0xAF571158A248C3E1A2BF13DE464036F5)
Complete name : D:DownloadsZvezda.2002.x264.BDRip.(AVC).by.Тorrent-Хzona.mkv
Format : Matroska
Format version : Version 2
File size : 1.52 GiB
Duration : 1h 38mn
Overall bit rate : 2 200 Kbps
Encoded date : UTC 2013-05-29 05:51:35
Writing application : mkvmerge v6.1.0 ('Old Devil') built on Mar 4 2013 09:10:42
Writing library : libebml v1.3.0 + libmatroska v1.4.0
Video
ID : 1
Format : AVC
Format/Info : Advanced Video Codec
Format profile : High@L4.1
Format settings, CABAC : Yes
Format settings, ReFrames : 4 frames
Codec ID : V_MPEG4/ISO/AVC
Duration : 1h 38mn
Bit rate : 1 750 Kbps
Width : 1 024 pixels
Height : 608 pixels
Display aspect ratio : 1.684
Frame rate mode : Constant
Frame rate : 23.976 fps
Color space : YUV
Chroma subsampling : 4:2:0
Bit depth : 8 bits
Scan type : Progressive
Bits/(Pixel*Frame) : 0.117
Stream size : 1.18 GiB (78%)
Writing library : x264 core 130 r2273 b3065e6
Encoding settings : cabac=1 / ref=3 / deblock=1:-1:-1 / analyse=0x3:0x111 / me=umh / subme=9 / psy=1 / psy_rd=1.00:0.15 / mixed_ref=1 / me_range=32 / chroma_me=1 / trellis=2 / 8x8dct=1 / cqm=0 / deadzone=21,11 / fast_pskip=0 / chroma_qp_offset=-3 / threads=3 / lookahead_threads=1 / sliced_threads=0 / nr=0 / decimate=1 / interlaced=0 / bluray_compat=0 / constrained_intra=0 / bframes=3 / b_pyramid=2 / b_adapt=0 / b_bias=0 / direct=1 / weightb=1 / open_gop=0 / weightp=2 / keyint=250 / keyint_min=23 / scenecut=40 / intra_refresh=0 / rc_lookahead=50 / rc=2pass / mbtree=1 / bitrate=1750 / ratetol=1.0 / qcomp=0.60 / qpmin=0 / qpmax=69 / qpstep=4 / cplxblur=20.0 / qblur=0.5 / ip_ratio=1.40 / aq=1:1.00
Default : Yes
Forced : No
Audio
ID : 2
Format : AC-3
Format/Info : Audio Coding 3
Mode extension : CM (complete main)
Format settings, Endianness : Big
Codec ID : A_AC3
Duration : 1h 38mn
Bit rate mode : Constant
Bit rate : 448 Kbps
Channel(s) : 6 channels
Channel positions : Front: L C R, Side: L R, LFE
Sampling rate : 48.0 KHz
Bit depth : 16 bits
Compression mode : Lossy
Stream size : 316 MiB (20%)
Default : Yes
Forced : No



Релиз от: &



   Похожие торренты   Торрент   Размер 
В этой теме нет новых непрочитанных сообщений. Южная звезда / The Southern Star (1969) DVDRip-AVC от Тorrent-Хzona

26 | 6

1.44 ГБ

В этой теме нет новых непрочитанных сообщений. Красная звезда. 20 лучших песен 2012 года [эфир от 01.01] (2013) HDTVRemux от Тorrent-Хzona

0 | 3

12.81 ГБ

В этой теме нет новых непрочитанных сообщений. Девдас / Devdas (2002) BDRip-AVC от Тorrent-Хzona

181 | 2

2.93 ГБ

В этой теме нет новых непрочитанных сообщений. Порно-звезда: Легенда Рона Джереми / Porn Star: The Legend of Ron Jeremy (2001) DVDRip-AVC от Тorrent-Хzona

59 | 35

994.39 МБ

В этой теме нет новых непрочитанных сообщений. Лубянка. Гений разведки (2002) DVDRip-AVC от Тorrent-Хzona

3 | 2

1.1 ГБ

В этой теме нет новых непрочитанных сообщений. BBC: Загадочные кошки / The Cat Connection (2002) DVDRip-AVC от Тorrent-Хzona

71 | 4

679.27 МБ

В этой теме нет новых непрочитанных сообщений. Исход с Востока 1 / Exodus from the east 1 (2002) DVDRip-AVC от Тorrent-Хzona

8 | 4

1.75 ГБ




Вы не можете начинать темы
Вы не можете отвечать на сообщения
Вы не можете редактировать свои сообщения
Вы не можете удалять свои сообщения
Вы не можете добавлять вложения

Перейти:  
Для Мосгорсуда, Роскомнадзора и рекламодателей: mosgorsud-torrent[собачка]yandex.ru
 Вход
ppkBB3cker v.2 © 2008-2014 @ PPK
[ Time : 0.044s | 15 Queries | GZIP : Off ]

Торрент трекер RUTOR.IN, Не можете зайти на rutor.org? Какой новый адрес рутор? Какое зеркало рутор? Не работает rutor.org и зеркала? Тогда наш торрент специально для вас. Rutor.in неофициальное зеркало rutor. В случае если у Вас заблокирован rutor или вдруг Вы не можете на него зайти, то Вы без труда сможете скачать бесплатно и без рекламы последние новинки кино, игр, сериалов и прочего у нас, на Rutor.in. Не нужно использовать прокси, чтобы зайти на рутор, достаточно воспользоваться нашим ресурсом. Все новые фильмы, игры, сериалы, книги и музыка за 2013 и 2014 годы через торрент бесплатно. Скачивайте фильмы в хорошем качестве, игры для пк, xbox, playstation без регистрации. У нас вы найдете новые Зарубежные сериалы и Русские сериалы 2013, 2014, 2015 годов. Оставайтесь с нами, качайте любимые фильмы, игры, сериалы, книги и музыку.
cron